  0
SECTION
  2
HEADER
  9
$ACADVER
  1
AC1015
  9
$ACADMAINTVER
 70
     6
  9
$DWGCODEPAGE
  3
ANSI_1252
  9
$INSBASE
 10
0.0
 20
0.0
 30
0.0
  9
$EXTMIN
 10
0.0
 20
0.0
 30
0.0
  9
$EXTMAX
 10
11.0
 20
8.5
 30
0.0
  9
$LIMMIN
 10
0.0
 20
0.0
  9
$LIMMAX
 10
11.0
 20
8.5
  9
$ORTHOMODE
 70
     0
  9
$REGENMODE
 70
     1
  9
$FILLMODE
 70
     1
  9
$QTEXTMODE
 70
     0
  9
$MIRRTEXT
 70
     1
  9
$LTSCALE
 40
1.0
  9
$ATTMODE
 70
     1
  9
$TEXTSIZE
 40
0.1666666667
  9
$TRACEWID
 40
0.05
  9
$TEXTSTYLE
  7
Standard
  9
$CLAYER
  8
0
  9
$CELTYPE
  6
ByLayer
  9
$CECOLOR
 62
   256
  9
$CELTSCALE
 40
1.0
  9
$DISPSILH
 70
     0
  9
$DIMSCALE
 40
1.0
  9
$DIMASZ
 40
0.09
  9
$DIMEXO
 40
0.05
  9
$DIMDLI
 40
0.38
  9
$DIMRND
 40
0.0
  9
$DIMDLE
 40
0.0
  9
$DIMEXE
 40
0.0625
  9
$DIMTP
 40
0.0
  9
$DIMTM
 40
0.0
  9
$DIMTXT
 40
0.1666666667
  9
$DIMCEN
 40
0.09
  9
$DIMTSZ
 40
0.0
  9
$DIMTOL
 70
     0
  9
$DIMLIM
 70
     0
  9
$DIMTIH
 70
     1
  9
$DIMTOH
 70
     1
  9
$DIMSE1
 70
     0
  9
$DIMSE2
 70
     0
  9
$DIMTAD
 70
     0
  9
$DIMZIN
 70
     0
  9
$DIMBLK
  1

  9
$DIMASO
 70
     1
  9
$DIMSHO
 70
     1
  9
$DIMPOST
  1

  9
$DIMAPOST
  1

  9
$DIMALT
 70
     0
  9
$DIMALTD
 70
     2
  9
$DIMALTF
 40
25.4
  9
$DIMLFAC
 40
1.0
  9
$DIMTOFL
 70
     0
  9
$DIMTVP
 40
0.0
  9
$DIMTIX
 70
     0
  9
$DIMSOXD
 70
     0
  9
$DIMSAH
 70
     0
  9
$DIMBLK1
  1

  9
$DIMBLK2
  1

  9
$DIMSTYLE
  2
Standard
  9
$DIMCLRD
 70
     0
  9
$DIMCLRE
 70
     0
  9
$DIMCLRT
 70
     0
  9
$DIMTFAC
 40
1.0
  9
$DIMGAP
 40
0.06
  9
$DIMJUST
 70
     0
  9
$DIMSD1
 70
     0
  9
$DIMSD2
 70
     0
  9
$DIMTOLJ
 70
     1
  9
$DIMTZIN
 70
     0
  9
$DIMALTZ
 70
     0
  9
$DIMALTTZ
 70
     0
  9
$DIMUPT
 70
     0
  9
$DIMDEC
 70
     2
  9
$DIMTDEC
 70
     2
  9
$DIMALTU
 70
     2
  9
$DIMALTTD
 70
     2
  9
$DIMTXSTY
  7
Standard
  9
$DIMAUNIT
 70
     0
  9
$DIMADEC
 70
     0
  9
$DIMALTRND
 40
0.0
  9
$DIMAZIN
 70
     0
  9
$DIMDSEP
 70
    46
  9
$DIMATFIT
 70
     3
  9
$DIMFRAC
 70
     0
  9
$DIMLDRBLK
  1

  9
$DIMLUNIT
 70
     2
  9
$DIMLWD
 70
    -2
  9
$DIMLWE
 70
    -2
  9
$DIMTMOVE
 70
     0
  9
$LUNITS
 70
     2
  9
$LUPREC
 70
     2
  9
$SKETCHINC
 40
0.1
  9
$FILLETRAD
 40
0.5
  9
$AUNITS
 70
     0
  9
$AUPREC
 70
     0
  9
$MENU
  1
.
  9
$ELEVATION
 40
0.0
  9
$PELEVATION
 40
0.0
  9
$THICKNESS
 40
0.0
  9
$LIMCHECK
 70
     0
  9
$CHAMFERA
 40
0.5
  9
$CHAMFERB
 40
0.5
  9
$CHAMFERC
 40
1.0
  9
$CHAMFERD
 40
0.0
  9
$SKPOLY
 70
     0
  9
$TDCREATE
 40
2455678.395087917
  9
$TDUCREATE
 40
2455678.60342125
  9
$TDUPDATE
 40
2455678.395087928
  9
$TDUUPDATE
 40
2455678.603421262
  9
$TDINDWG
 40
0.0000000116
  9
$TDUSRTIMER
 40
0.0000000116
  9
$USRTIMER
 70
     1
  9
$ANGBASE
 50
0.0
  9
$ANGDIR
 70
     0
  9
$PDMODE
 70
     0
  9
$PDSIZE
 40
-1.0
  9
$PLINEWID
 40
0.0
  9
$SPLFRAME
 70
     0
  9
$SPLINETYPE
 70
     6
  9
$SPLINESEGS
 70
     8
  9
$HANDSEED
  5
290
  9
$SURFTAB1
 70
     6
  9
$SURFTAB2
 70
     6
  9
$SURFTYPE
 70
     6
  9
$SURFU
 70
     6
  9
$SURFV
 70
     6
  9
$UCSBASE
  2

  9
$UCSNAME
  2

  9
$UCSORG
 10
0.0
 20
0.0
 30
0.0
  9
$UCSXDIR
 10
1.0
 20
0.0
 30
0.0
  9
$UCSYDIR
 10
0.0
 20
1.0
 30
0.0
  9
$UCSORTHOREF
  2

  9
$UCSORTHOVIEW
 70
     0
  9
$UCSORGTOP
 10
0.0
 20
0.0
 30
0.0
  9
$UCSORGBOTTOM
 10
0.0
 20
0.0
 30
0.0
  9
$UCSORGLEFT
 10
0.0
 20
0.0
 30
0.0
  9
$UCSORGRIGHT
 10
0.0
 20
0.0
 30
0.0
  9
$UCSORGFRONT
 10
0.0
 20
0.0
 30
0.0
  9
$UCSORGBACK
 10
0.0
 20
0.0
 30
0.0
  9
$PUCSBASE
  2

  9
$PUCSNAME
  2

  9
$PUCSORG
 10
0.0
 20
0.0
 30
0.0
  9
$PUCSXDIR
 10
1.0
 20
0.0
 30
0.0
  9
$PUCSYDIR
 10
0.0
 20
1.0
 30
0.0
  9
$PUCSORTHOREF
  2

  9
$PUCSORTHOVIEW
 70
     0
  9
$PUCSORGTOP
 10
0.0
 20
0.0
 30
0.0
  9
$PUCSORGBOTTOM
 10
0.0
 20
0.0
 30
0.0
  9
$PUCSORGLEFT
 10
0.0
 20
0.0
 30
0.0
  9
$PUCSORGRIGHT
 10
0.0
 20
0.0
 30
0.0
  9
$PUCSORGFRONT
 10
0.0
 20
0.0
 30
0.0
  9
$PUCSORGBACK
 10
0.0
 20
0.0
 30
0.0
  9
$USERI1
 70
     0
  9
$USERI2
 70
     0
  9
$USERI3
 70
     0
  9
$USERI4
 70
     0
  9
$USERI5
 70
     0
  9
$USERR1
 40
0.0
  9
$USERR2
 40
0.0
  9
$USERR3
 40
0.0
  9
$USERR4
 40
0.0
  9
$USERR5
 40
0.0
  9
$WORLDVIEW
 70
     1
  9
$SHADEDGE
 70
     3
  9
$SHADEDIF
 70
    70
  9
$TILEMODE
 70
     1
  9
$MAXACTVP
 70
    64
  9
$PINSBASE
 10
0.0
 20
0.0
 30
0.0
  9
$PLIMCHECK
 70
     0
  9
$PEXTMIN
 10
1.0000000000E+20
 20
1.0000000000E+20
 30
1.0000000000E+20
  9
$PEXTMAX
 10
-1.0000000000E+20
 20
-1.0000000000E+20
 30
-1.0000000000E+20
  9
$PLIMMIN
 10
0.0
 20
0.0
  9
$PLIMMAX
 10
12.0
 20
9.0
  9
$UNITMODE
 70
     0
  9
$VISRETAIN
 70
     1
  9
$PLINEGEN
 70
     0
  9
$PSLTSCALE
 70
     1
  9
$TREEDEPTH
 70
  3020
  9
$CMLSTYLE
  2
Standard
  9
$CMLJUST
 70
     0
  9
$CMLSCALE
 40
1.0
  9
$PROXYGRAPHICS
 70
     1
  9
$MEASUREMENT
 70
     0
  9
$CELWEIGHT
370
    -1
  9
$ENDCAPS
280
     0
  9
$JOINSTYLE
280
     0
  9
$LWDISPLAY
290
     1
  9
$INSUNITS
 70
     1
  9
$HYPERLINKBASE
  1

  9
$STYLESHEET
  1

  9
$XEDIT
290
     1
  9
$CEPSNTYPE
380
     0
  9
$PSTYLEMODE
290
     1
  9
$FINGERPRINTGUID
  2
{CAFC809E-73D4-4B23-8E03-39F216D4AA2C}
  9
$VERSIONGUID
  2
{FAEB1C32-E019-11D5-929B-00C0DF256EC4}
  9
$EXTNAMES
290
     1
  9
$PSVPSCALE
 40
0.0
  9
$OLESTARTUP
290
     0
  0
ENDSEC
  0
SECTION
  2
CLASSES
  0
CLASS
  1
ACDBDICTIONARYWDFLT
  2
AcDbDictionaryWithDefault
  3
ObjectDBX Classes
 90
        0
280
     0
281
     0
  0
CLASS
  1
VISUALSTYLE
  2
AcDbVisualStyle
  3
ObjectDBX Classes
 90
     4095
280
     0
281
     0
  0
CLASS
  1
MATERIAL
  2
AcDbMaterial
  3
ObjectDBX Classes
 90
     1153
280
     0
281
     0
  0
CLASS
  1
ACDBPLACEHOLDER
  2
AcDbPlaceHolder
  3
ObjectDBX Classes
 90
        0
280
     0
281
     0
  0
CLASS
  1
LAYOUT
  2
AcDbLayout
  3
ObjectDBX Classes
 90
        0
280
     0
281
     0
  0
ENDSEC
  0
SECTION
  2
TABLES
  0
TABLE
  2
VPORT
  5
8
330
0
100
AcDbSymbolTable
 70
     1
  0
VPORT
  5
29
330
8
100
AcDbSymbolTableRecord
100
AcDbViewportTableRecord
  2
*Active
 70
     0
 10
0.0
 20
0.0
 11
1.0
 21
1.0
 12
5.5
 22
4.25
 13
0.0
 23
0.0
 14
0.5
 24
0.5
 15
0.5
 25
0.5
 16
0.0
 26
0.0
 36
1.0
 17
0.0
 27
0.0
 37
0.0
 40
8.5
 41
1.2941176471
 42
50.0
 43
0.0
 44
0.0
 50
0.0
 51
0.0
 71
     0
 72
  2000
 73
     1
 74
     3
 75
     0
 76
     0
 77
     0
 78
     0
281
     0
 65
     1
110
0.0
120
0.0
130
0.0
111
1.0
121
0.0
131
0.0
112
0.0
122
1.0
132
0.0
 79
     0
146
0.0
  0
ENDTAB
  0
TABLE
  2
LTYPE
  5
5
330
0
100
AcDbSymbolTable
 70
     6
  0
LTYPE
  5
14
330
5
100
AcDbSymbolTableRecord
100
AcDbLinetypeTableRecord
  2
ByBlock
 70
     0
  3

 72
    65
 73
     0
 40
0.0
  0
LTYPE
  5
15
330
5
100
AcDbSymbolTableRecord
100
AcDbLinetypeTableRecord
  2
ByLayer
 70
     0
  3

 72
    65
 73
     0
 40
0.0
  0
LTYPE
  5
16
330
5
100
AcDbSymbolTableRecord
100
AcDbLinetypeTableRecord
  2
Continuous
 70
     0
  3
Solid line
 72
    65
 73
     0
 40
0.0
  0
LTYPE
  5
3F
330
5
100
AcDbSymbolTableRecord
100
AcDbLinetypeTableRecord
  2
HIDDEN
 70
     0
  3
Hidden __ __ __ __ __ __ __ __ __ __ __ __ __ __
 72
    65
 73
     2
 40
0.075
 49
0.05
 74
     0
 49
-0.025
 74
     0
  0
LTYPE
  5
40
330
5
100
AcDbSymbolTableRecord
100
AcDbLinetypeTableRecord
  2
PHANTOM
 70
     0
  3
Phantom ______  __  __  ______  __  __  ______
 72
    65
 73
     6
 40
0.5
 49
0.25
 74
     0
 49
-0.05
 74
     0
 49
0.05
 74
     0
 49
-0.05
 74
     0
 49
0.05
 74
     0
 49
-0.05
 74
     0
  0
LTYPE
  5
41
330
5
100
AcDbSymbolTableRecord
100
AcDbLinetypeTableRecord
  2
CENTER
 70
     0
  3
Center ____ _ ____ _ ____ _ ____ _ ____ _ ____
 72
    65
 73
     4
 40
0.4
 49
0.25
 74
     0
 49
-0.05
 74
     0
 49
0.05
 74
     0
 49
-0.05
 74
     0
  0
LTYPE
  5
42
330
5
100
AcDbSymbolTableRecord
100
AcDbLinetypeTableRecord
  2
CENTERX2
 70
     0
  3
Center (2x) ________  __  ________  __  _____
 72
    65
 73
     4
 40
0.8
 49
0.5
 74
     0
 49
-0.1
 74
     0
 49
0.1
 74
     0
 49
-0.1
 74
     0
  0
LTYPE
  5
43
330
5
100
AcDbSymbolTableRecord
100
AcDbLinetypeTableRecord
  2
DOT2
 70
     0
  3
Dot (.5x) ........................................
 72
    65
 73
     2
 40
0.025
 49
0.0
 74
     0
 49
-0.025
 74
     0
  0
ENDTAB
  0
TABLE
  2
LAYER
  5
2
330
0
100
AcDbSymbolTable
 70
     2
  0
LAYER
  5
10
330
2
100
AcDbSymbolTableRecord
100
AcDbLayerTableRecord
  2
0
 70
     0
 62
     7
  6
Continuous
370
    -3
390
F
  0
LAYER
  5
44
330
2
100
AcDbSymbolTableRecord
100
AcDbLayerTableRecord
  2
FORMAT
 70
     0
 62
     7
  6
Continuous
370
    -3
390
F
  0
ENDTAB
  0
TABLE
  2
STYLE
  5
3
330
0
100
AcDbSymbolTable
 70
     2
  0
STYLE
  5
11
330
3
100
AcDbSymbolTableRecord
100
AcDbTextStyleTableRecord
  2
Standard
 70
     0
 40
0.0
 41
1.0
 50
0.0
 71
     0
 42
0.2
  3
txt
  4

  0
STYLE
  5
254
330
3
100
AcDbSymbolTableRecord
100
AcDbTextStyleTableRecord
  2
SLDTEXTSTYLE0
 70
     0
 40
0.0
 41
0.605
 50
0.0
 71
     0
 42
0.2
  3
TXT
  4

  0
ENDTAB
  0
TABLE
  2
VIEW
  5
6
330
0
100
AcDbSymbolTable
 70
     0
  0
ENDTAB
  0
TABLE
  2
UCS
  5
7
330
0
100
AcDbSymbolTable
 70
     0
  0
ENDTAB
  0
TABLE
  2
APPID
  5
9
330
0
100
AcDbSymbolTable
 70
     1
  0
APPID
  5
12
330
9
100
AcDbSymbolTableRecord
100
AcDbRegAppTableRecord
  2
ACAD
 70
     0
  0
ENDTAB
  0
TABLE
  2
DIMSTYLE
  5
A
330
0
100
AcDbSymbolTable
 70
     4
100
AcDbDimStyleTable
  0
DIMSTYLE
105
27
330
A
100
AcDbSymbolTableRecord
100
AcDbDimStyleTableRecord
  2
Standard
 70
     0
178
     0
340
11
  0
DIMSTYLE
105
255
102
{ACAD_REACTORS
330
253
102
}
330
A
100
AcDbSymbolTableRecord
100
AcDbDimStyleTableRecord
  2
SLDDIMSTYLE0
 70
     0
 41
0.09
 44
0.0
 45
0.000000001
 78
     4
 79
     1
140
0.1213378906
147
0.0303344727
148
0.000000001
170
     1
173
     1
178
     0
271
     2
272
     2
274
     3
276
     2
284
    12
340
254
  0
DIMSTYLE
105
267
102
{ACAD_REACTORS
330
266
102
}
330
A
100
AcDbSymbolTableRecord
100
AcDbDimStyleTableRecord
  2
SLDDIMSTYLE1
 70
     0
 41
0.09
 44
0.0
 45
0.000000001
 78
    12
 79
     3
140
0.1213378906
147
0.0303344727
148
0.000000001
170
     1
171
     0
173
     1
178
     0
271
     3
272
     2
274
     3
276
     2
284
    12
340
254
  0
DIMSTYLE
105
27C
102
{ACAD_REACTORS
330
27B
102
}
330
A
100
AcDbSymbolTableRecord
100
AcDbDimStyleTableRecord
  2
SLDDIMSTYLE2
 70
     0
 41
0.09
 44
0.0
 45
0.000000001
 78
    12
 79
     3
140
0.1213378906
147
0.0303344727
148
0.000000001
170
     1
171
     0
173
     1
178
     0
271
     2
272
     2
274
     3
276
     2
284
    12
340
254
  0
ENDTAB
  0
TABLE
  2
BLOCK_RECORD
  5
1
330
0
100
AcDbSymbolTable
 70
     4
  0
BLOCK_RECORD
  5
1F
330
1
100
AcDbSymbolTableRecord
100
AcDbBlockTableRecord
  2
*Model_Space
340
22
  0
BLOCK_RECORD
  5
1B
330
1
100
AcDbSymbolTableRecord
100
AcDbBlockTableRecord
  2
*Paper_Space
340
1E
  0
BLOCK_RECORD
  5
23
330
1
100
AcDbSymbolTableRecord
100
AcDbBlockTableRecord
  2
*Paper_Space0
340
26
  0
BLOCK_RECORD
  5
256
330
1
100
AcDbSymbolTableRecord
100
AcDbBlockTableRecord
  2
*D1
340
0
  0
BLOCK_RECORD
  5
268
330
1
100
AcDbSymbolTableRecord
100
AcDbBlockTableRecord
  2
*D2
340
0
  0
BLOCK_RECORD
  5
27D
330
1
100
AcDbSymbolTableRecord
100
AcDbBlockTableRecord
  2
*D3
340
0
  0
ENDTAB
  0
ENDSEC
  0
SECTION
  2
BLOCKS
  0
BLOCK
  5
20
330
1F
100
AcDbEntity
  8
0
100
AcDbBlockBegin
  2
*Model_Space
 70
     0
 10
0.0
 20
0.0
 30
0.0
  3
*Model_Space
  1

  0
ENDBLK
  5
21
330
1F
100
AcDbEntity
  8
0
100
AcDbBlockEnd
  0
BLOCK
  5
1C
330
1B
100
AcDbEntity
 67
     1
  8
0
100
AcDbBlockBegin
  2
*Paper_Space
 70
     0
 10
0.0
 20
0.0
 30
0.0
  3
*Paper_Space
  1

  0
ENDBLK
  5
1D
330
1B
100
AcDbEntity
 67
     1
  8
0
100
AcDbBlockEnd
  0
BLOCK
  5
24
330
23
100
AcDbEntity
  8
0
100
AcDbBlockBegin
  2
*Paper_Space0
 70
     0
 10
0.0
 20
0.0
 30
0.0
  3
*Paper_Space0
  1

  0
ENDBLK
  5
25
330
23
100
AcDbEntity
  8
0
100
AcDbBlockEnd
  0
BLOCK
  5
257
330
256
100
AcDbEntity
  8
0
100
AcDbBlockBegin
  2
*D1
 70
     1
 10
0.0
 20
0.0
 30
0.0
  3
*D1
  1

  0
SOLID
  5
259
330
256
100
AcDbEntity
  8
FORMAT
100
AcDbTrace
 10
2.9610528222
 20
2.8513042597
 30
0.0
 11
3.0510528222
 21
2.8358042597
 31
0.0
 12
3.0510528222
 22
2.8668042597
 32
0.0
 13
3.0510528222
 23
2.8668042597
 33
0.0
  0
SOLID
  5
25A
330
256
100
AcDbEntity
  8
FORMAT
100
AcDbTrace
 10
7.9610528222
 20
2.8513042597
 30
0.0
 11
7.8710528222
 21
2.8668042597
 31
0.0
 12
7.8710528222
 22
2.8358042597
 32
0.0
 13
7.8710528222
 23
2.8358042597
 33
0.0
  0
LINE
  5
25B
330
256
100
AcDbEntity
  8
FORMAT
100
AcDbLine
 10
5.2874417132
 20
3.1209802244
 30
0.0
 11
5.2596639357
 21
3.1209802244
 31
0.0
  0
LINE
  5
25C
330
256
100
AcDbEntity
  8
FORMAT
100
AcDbLine
 10
5.2596639357
 20
3.1209802244
 30
0.0
 11
5.2596639357
 21
2.9346376287
 31
0.0
  0
LINE
  5
25D
330
256
100
AcDbEntity
  8
FORMAT
100
AcDbLine
 10
5.2596639357
 20
2.9346376287
 30
0.0
 11
5.2874417132
 21
2.9346376287
 31
0.0
  0
LINE
  5
25E
330
256
100
AcDbEntity
  8
FORMAT
100
AcDbLine
 10
5.6346639312
 20
3.1209802244
 30
0.0
 11
5.6624417086
 21
3.1209802244
 31
0.0
  0
LINE
  5
25F
330
256
100
AcDbEntity
  8
FORMAT
100
AcDbLine
 10
5.6624417086
 20
3.1209802244
 30
0.0
 11
5.6624417086
 21
2.9346376287
 31
0.0
  0
LINE
  5
260
330
256
100
AcDbEntity
  8
FORMAT
100
AcDbLine
 10
5.6624417086
 20
2.9346376287
 30
0.0
 11
5.6346639312
 21
2.9346376287
 31
0.0
  0
LINE
  5
261
330
256
100
AcDbEntity
  8
FORMAT
100
AcDbLine
 10
2.9610528222
 20
2.8513042597
 30
0.0
 11
4.590688472
 21
2.8513042597
 31
0.0
  0
LINE
  5
262
330
256
100
AcDbEntity
  8
FORMAT
100
AcDbLine
 10
7.9610528222
 20
2.8513042597
 30
0.0
 11
6.3314171723
 21
2.8513042597
 31
0.0
  0
MTEXT
  5
263
330
256
100
AcDbEntity
  8
FORMAT
100
AcDbMText
 10
5.322163935
 20
3.0957710962
 30
0.0039370079
 40
0.125
 41
0.0
 71
     1
 72
     1
  1
127
  7
SLDTEXTSTYLE0
 73
     1
 44
1.0
  0
MTEXT
  5
264
330
256
100
AcDbEntity
  8
FORMAT
100
AcDbMText
 10
5.2434602292
 20
2.9013266633
 30
0.0039370079
 40
0.125
 41
0.0
 71
     1
 72
     1
  1
5.00
  7
SLDTEXTSTYLE0
 73
     1
 44
1.0
  0
MTEXT
  5
265
330
256
100
AcDbEntity
  8
FORMAT
100
AcDbMText
 10
4.6184603559
 20
2.7149840217
 30
0.0039370079
 40
0.125
 41
0.0
 71
     1
 72
     1
  1
NOMINAL DUCT SIZE
  7
SLDTEXTSTYLE0
 73
     1
 44
1.0
  0
ENDBLK
  5
258
330
256
100
AcDbEntity
  8
0
100
AcDbBlockEnd
  0
BLOCK
  5
269
330
268
100
AcDbEntity
  8
0
100
AcDbBlockBegin
  2
*D2
 70
     1
 10
0.0
 20
0.0
 30
0.0
  3
*D2
  1

  0
SOLID
  5
26B
330
268
100
AcDbEntity
  8
FORMAT
100
AcDbTrace
 10
1.8836414049
 20
5.7595413388
 30
0.0
 11
1.8681414049
 21
5.6695413388
 31
0.0
 12
1.8991414049
 22
5.6695413388
 32
0.0
 13
1.8991414049
 23
5.6695413388
 33
0.0
  0
SOLID
  5
26C
330
268
100
AcDbEntity
  8
FORMAT
100
AcDbTrace
 10
1.8836414049
 20
5.3047702129
 30
0.0
 11
1.8991414049
 21
5.3947702129
 31
0.0
 12
1.8681414049
 22
5.3947702129
 32
0.0
 13
1.8681414049
 23
5.3947702129
 33
0.0
  0
LINE
  5
26D
330
268
100
AcDbEntity
  8
FORMAT
100
AcDbLine
 10
1.3304183531
 20
6.415437776
 30
0.0
 11
1.3026405757
 21
6.415437776
 31
0.0
  0
LINE
  5
26E
330
268
100
AcDbEntity
  8
FORMAT
100
AcDbLine
 10
1.3026405757
 20
6.415437776
 30
0.0
 11
1.3026405757
 21
6.2290951803
 31
0.0
  0
LINE
  5
26F
330
268
100
AcDbEntity
  8
FORMAT
100
AcDbLine
 10
1.3026405757
 20
6.2290951803
 30
0.0
 11
1.3304183531
 21
6.2290951803
 31
0.0
  0
LINE
  5
270
330
268
100
AcDbEntity
  8
FORMAT
100
AcDbLine
 10
1.5850479858
 20
6.415437776
 30
0.0
 11
1.6128257632
 21
6.415437776
 31
0.0
  0
LINE
  5
271
330
268
100
AcDbEntity
  8
FORMAT
100
AcDbLine
 10
1.6128257632
 20
6.415437776
 30
0.0
 11
1.6128257632
 21
6.2290951803
 31
0.0
  0
LINE
  5
272
330
268
100
AcDbEntity
  8
FORMAT
100
AcDbLine
 10
1.6128257632
 20
6.2290951803
 30
0.0
 11
1.5850479858
 21
6.2290951803
 31
0.0
  0
LINE
  5
273
330
268
100
AcDbEntity
  8
FORMAT
100
AcDbLine
 10
2.6923028222
 20
5.7595413388
 30
0.0
 11
1.8211414049
 21
5.7595413388
 31
0.0
  0
LINE
  5
274
330
268
100
AcDbEntity
  8
FORMAT
100
AcDbLine
 10
2.6923028222
 20
5.3047702129
 30
0.0
 11
1.8211414049
 21
5.3047702129
 31
0.0
  0
LINE
  5
275
330
268
100
AcDbEntity
  8
FORMAT
100
AcDbLine
 10
1.7586414049
 20
6.1457618113
 30
0.0
 11
1.8836414049
 21
6.1457618113
 31
0.0
  0
LINE
  5
276
330
268
100
AcDbEntity
  8
FORMAT
100
AcDbLine
 10
1.8836414049
 20
6.1457618113
 30
0.0
 11
1.8836414049
 21
5.7595413388
 31
0.0
  0
LINE
  5
277
330
268
100
AcDbEntity
  8
FORMAT
100
AcDbLine
 10
1.8836414049
 20
5.7595413388
 30
0.0
 11
1.8836414049
 21
5.3047702129
 31
0.0
  0
MTEXT
  5
278
330
268
100
AcDbEntity
  8
FORMAT
100
AcDbMText
 10
1.3651405749
 20
6.3902286477
 30
0.0039370079
 40
0.125
 41
0.0
 71
     1
 72
     1
  1
12
  7
SLDTEXTSTYLE0
 73
     1
 44
1.0
  0
MTEXT
  5
279
330
268
100
AcDbEntity
  8
FORMAT
100
AcDbMText
 10
1.2401405673
 20
6.1957842148
 30
0.0039370079
 40
0.125
 41
0.0
 71
     1
 72
     1
  1
.455
  7
SLDTEXTSTYLE0
 73
     1
 44
1.0
  0
MTEXT
  5
27A
330
268
100
AcDbEntity
  8
FORMAT
100
AcDbMText
 10
1.3049553752
 20
6.0094415733
 30
0.0039370079
 40
0.125
 41
0.0
 71
     1
 72
     1
  1
MIN
  7
SLDTEXTSTYLE0
 73
     1
 44
1.0
  0
ENDBLK
  5
26A
330
268
100
AcDbEntity
  8
0
100
AcDbBlockEnd
  0
BLOCK
  5
27E
330
27D
100
AcDbEntity
  8
0
100
AcDbBlockBegin
  2
*D3
 70
     1
 10
0.0
 20
0.0
 30
0.0
  3
*D3
  1

  0
SOLID
  5
280
330
27D
100
AcDbEntity
  8
FORMAT
100
AcDbTrace
 10
2.7423028222
 20
6.6182027562
 30
0.0
 11
2.8323028222
 21
6.6027027562
 31
0.0
 12
2.8323028222
 22
6.6337027562
 32
0.0
 13
2.8323028222
 23
6.6337027562
 33
0.0
  0
SOLID
  5
281
330
27D
100
AcDbEntity
  8
FORMAT
100
AcDbTrace
 10
8.1798028222
 20
6.6182027562
 30
0.0
 11
8.0898028222
 21
6.6337027562
 31
0.0
 12
8.0898028222
 22
6.6027027562
 32
0.0
 13
8.0898028222
 23
6.6027027562
 33
0.0
  0
LINE
  5
282
330
27D
100
AcDbEntity
  8
FORMAT
100
AcDbLine
 10
5.2874417132
 20
6.8878787208
 30
0.0
 11
5.2596639357
 21
6.8878787208
 31
0.0
  0
LINE
  5
283
330
27D
100
AcDbEntity
  8
FORMAT
100
AcDbLine
 10
5.2596639357
 20
6.8878787208
 30
0.0
 11
5.2596639357
 21
6.7015361252
 31
0.0
  0
LINE
  5
284
330
27D
100
AcDbEntity
  8
FORMAT
100
AcDbLine
 10
5.2596639357
 20
6.7015361252
 30
0.0
 11
5.2874417132
 21
6.7015361252
 31
0.0
  0
LINE
  5
285
330
27D
100
AcDbEntity
  8
FORMAT
100
AcDbLine
 10
5.6346639312
 20
6.8878787208
 30
0.0
 11
5.6624417086
 21
6.8878787208
 31
0.0
  0
LINE
  5
286
330
27D
100
AcDbEntity
  8
FORMAT
100
AcDbLine
 10
5.6624417086
 20
6.8878787208
 30
0.0
 11
5.6624417086
 21
6.7015361252
 31
0.0
  0
LINE
  5
287
330
27D
100
AcDbEntity
  8
FORMAT
100
AcDbLine
 10
5.6624417086
 20
6.7015361252
 30
0.0
 11
5.6346639312
 21
6.7015361252
 31
0.0
  0
LINE
  5
288
330
27D
100
AcDbEntity
  8
FORMAT
100
AcDbLine
 10
2.7423028222
 20
5.8095413388
 30
0.0
 11
2.7423028222
 21
6.6807027562
 31
0.0
  0
LINE
  5
289
330
27D
100
AcDbEntity
  8
FORMAT
100
AcDbLine
 10
8.1798028222
 20
5.8095413388
 30
0.0
 11
8.1798028222
 21
6.6807027562
 31
0.0
  0
LINE
  5
28A
330
27D
100
AcDbEntity
  8
FORMAT
100
AcDbLine
 10
2.7423028222
 20
6.6182027562
 30
0.0
 11
5.0490216807
 21
6.6182027562
 31
0.0
  0
LINE
  5
28B
330
27D
100
AcDbEntity
  8
FORMAT
100
AcDbLine
 10
8.1798028222
 20
6.6182027562
 30
0.0
 11
5.8730839637
 21
6.6182027562
 31
0.0
  0
MTEXT
  5
28C
330
27D
100
AcDbEntity
  8
FORMAT
100
AcDbMText
 10
5.322163935
 20
6.8626695926
 30
72.0039370079
 40
0.125
 41
0.0
 71
     1
 72
     1
  1
138
  7
SLDTEXTSTYLE0
 73
     1
 44
1.0
  0
MTEXT
  5
28D
330
27D
100
AcDbEntity
  8
FORMAT
100
AcDbMText
 10
5.2434602292
 20
6.6682251597
 30
72.0039370079
 40
0.125
 41
0.0
 71
     1
 72
     1
  1
5.44
  7
SLDTEXTSTYLE0
 73
     1
 44
1.0
  0
MTEXT
  5
28E
330
27D
100
AcDbEntity
  8
FORMAT
100
AcDbMText
 10
5.0767935645
 20
6.4818825182
 30
72.0039370079
 40
0.125
 41
0.0
 71
     1
 72
     1
  1
OVERALL
  7
SLDTEXTSTYLE0
 73
     1
 44
1.0
  0
ENDBLK
  5
27F
330
27D
100
AcDbEntity
  8
0
100
AcDbBlockEnd
  0
ENDSEC
  0
SECTION
  2
ENTITIES
  0
ARC
  5
45
330
1F
100
AcDbEntity
  8
0
  6
Continuous
 62
     7
370
    30
100
AcDbCircle
 10
3.2575528222
 20
4.7910287326
 30
0.0
 40
0.033500000000001
100
AcDbArc
 50
345.0
 51
0.0
  0
ARC
  5
46
330
1F
100
AcDbEntity
  8
0
  6
Continuous
 62
     7
370
    30
100
AcDbCircle
 10
3.2575528222
 20
4.7910287326
 30
0.0
 40
0.0075000000000007
100
AcDbArc
 50
345.0
 51
0.0
  0
ARC
  5
47
330
1F
100
AcDbEntity
  8
0
  6
Continuous
 62
     7
370
    30
100
AcDbCircle
 10
3.1450731284
 20
4.2128369652
 30
0.0
 40
0.0075000000000003
100
AcDbArc
 50
165.0
 51
180.0
  0
ARC
  5
48
330
1F
100
AcDbEntity
  8
0
  6
Continuous
 62
     7
370
    30
100
AcDbCircle
 10
3.1450731284
 20
4.2128369652
 30
0.0
 40
0.0335000000000001
100
AcDbArc
 50
165.0
 51
180.0
  0
ARC
  5
49
330
1F
100
AcDbEntity
  8
0
  6
Continuous
 62
     7
370
    30
100
AcDbCircle
 10
3.5578671434
 20
3.7644256801
 30
0.0
 40
0.0074999999999999
100
AcDbArc
 50
255.0
 51
0.0
  0
ARC
  5
4A
330
1F
100
AcDbEntity
  8
0
  6
Continuous
 62
     7
370
    30
100
AcDbCircle
 10
3.5578671434
 20
3.7644256801
 30
0.0
 40
0.0334999999999999
100
AcDbArc
 50
255.0
 51
0.0
  0
ARC
  5
4B
330
1F
100
AcDbEntity
  8
0
  6
Continuous
 62
     7
370
    30
100
AcDbCircle
 10
3.0520731284
 20
3.8999527779
 30
0.0
 40
0.0075000000000007
100
AcDbArc
 50
180.0
 51
255.0
  0
ARC
  5
4C
330
1F
100
AcDbEntity
  8
0
  6
Continuous
 62
     7
370
    30
100
AcDbCircle
 10
3.0520731284
 20
3.8999527779
 30
0.0
 40
0.033500000000001
100
AcDbArc
 50
180.0
 51
255.0
  0
LINE
  5
4D
330
1F
100
AcDbEntity
  8
0
  6
Continuous
 62
     7
370
    30
100
AcDbLine
 10
3.0445731642
 20
4.1177472781
 30
0.0
 11
3.0445731642
 21
3.8999527274
 31
0.0
  0
LINE
  5
4E
330
1F
100
AcDbEntity
  8
0
  6
Continuous
 62
     7
370
    30
100
AcDbLine
 10
3.0185731312
 20
4.1177472781
 30
0.0
 11
3.0185731312
 21
3.8999527274
 31
0.0
  0
LINE
  5
4F
330
1F
100
AcDbEntity
  8
0
  6
Continuous
 62
     7
370
    30
100
AcDbLine
 10
3.2650528572
 20
5.352541332
 30
0.0
 11
3.2650528572
 21
4.7910287469
 31
0.0
  0
LINE
  5
50
330
1F
100
AcDbEntity
  8
0
  6
Continuous
 62
     7
370
    30
100
AcDbLine
 10
3.2910528902
 20
5.352541332
 30
0.0
 11
3.2650528572
 21
5.352541332
 31
0.0
  0
ARC
  5
51
330
1F
100
AcDbEntity
  8
0
  6
Continuous
 62
     7
370
    30
100
AcDbCircle
 10
3.1040731284
 20
4.1587473238
 30
0.0
 40
0.0335000000000001
100
AcDbArc
 50
270.0
 51
0.0
  0
ARC
  5
52
330
1F
100
AcDbEntity
  8
0
  6
Continuous
 62
     7
370
    30
100
AcDbCircle
 10
3.1040731284
 20
4.1587473238
 30
0.0
 40
0.0075000000000003
100
AcDbArc
 50
270.0
 51
0.0
  0
LINE
  5
53
330
1F
100
AcDbEntity
  8
0
  6
Continuous
 62
     7
370
    30
100
AcDbLine
 10
3.1375731299
 20
4.2128369263
 30
0.0
 11
3.1375731299
 21
4.1587473244
 31
0.0
  0
LINE
  5
54
330
1F
100
AcDbEntity
  8
0
  6
Continuous
 62
     7
370
    30
100
AcDbLine
 10
3.1115730969
 20
4.2128369263
 30
0.0
 11
3.1115730969
 21
4.1587473244
 31
0.0
  0
LINE
  5
55
330
1F
100
AcDbEntity
  8
0
  6
Continuous
 62
     7
370
    30
100
AcDbLine
 10
3.1040730902
 20
4.1252472848
 30
0.0
 11
3.0520731709
 21
4.1252472848
 31
0.0
  0
LINE
  5
56
330
1F
100
AcDbEntity
  8
0
  6
Continuous
 62
     7
370
    30
100
AcDbLine
 10
3.1040730902
 20
4.1512473177
 30
0.0
 11
3.0520731709
 21
4.1512473177
 31
0.0
  0
LINE
  5
57
330
1F
100
AcDbEntity
  8
0
  6
Continuous
 62
     7
370
    30
100
AcDbLine
 10
3.2899113967
 20
4.7823582804
 30
0.0
 11
3.1378286203
 21
4.2147780372
 31
0.0
  0
LINE
  5
58
330
1F
100
AcDbEntity
  8
0
  6
Continuous
 62
     7
370
    30
100
AcDbLine
 10
3.2647972202
 20
4.7890875627
 30
0.0
 11
3.1127145904
 21
4.2215074661
 31
0.0
  0
LINE
  5
59
330
1F
100
AcDbEntity
  8
0
  6
Continuous
 62
     7
370
    30
100
AcDbLine
 10
3.5913671676
 20
3.8657676156
 30
0.0
 11
3.5653671346
 21
3.8657676156
 31
0.0
  0
LINE
  5
5A
330
1F
100
AcDbEntity
  8
0
  6
Continuous
 62
     7
370
    30
100
AcDbLine
 10
3.5913671676
 20
3.7644256397
 30
0.0
 11
3.5913671676
 21
3.8657676156
 31
0.0
  0
LINE
  5
5B
330
1F
100
AcDbEntity
  8
0
  6
Continuous
 62
     7
370
    30
100
AcDbLine
 10
3.5653671346
 20
3.7644256397
 30
0.0
 11
3.5653671346
 21
3.8657676156
 31
0.0
  0
LINE
  5
5C
330
1F
100
AcDbEntity
  8
0
  6
Continuous
 62
     7
370
    30
100
AcDbLine
 10
3.0501319133
 20
3.8927083577
 30
0.0
 11
3.555926017
 21
3.75718127
 31
0.0
  0
LINE
  5
5D
330
1F
100
AcDbEntity
  8
0
  6
Continuous
 62
     7
370
    30
100
AcDbLine
 10
3.0434026311
 20
3.8675943279
 30
0.0
 11
3.5491967348
 21
3.7320670935
 31
0.0
  0
ARC
  5
5E
330
1F
100
AcDbEntity
  8
0
  6
Continuous
 62
     7
370
    30
100
AcDbCircle
 10
3.0520731284
 20
4.1177473238
 30
0.0
 40
0.0335000000000001
100
AcDbArc
 50
90.0
 51
180.0
  0
ARC
  5
5F
330
1F
100
AcDbEntity
  8
0
  6
Continuous
 62
     7
370
    30
100
AcDbCircle
 10
3.0520731284
 20
4.1177473238
 30
0.0
 40
0.0074999999999998
100
AcDbArc
 50
90.0
 51
180.0
  0
ARC
  5
60
330
1F
100
AcDbEntity
  8
0
  6
Continuous
 62
     7
370
    30
100
AcDbCircle
 10
7.3642385009
 20
3.7644256801
 30
0.0
 40
0.0075000000000003
100
AcDbArc
 50
180.0
 51
285.0
  0
ARC
  5
61
330
1F
100
AcDbEntity
  8
0
  6
Continuous
 62
     7
370
    30
100
AcDbCircle
 10
7.3642385009
 20
3.7644256801
 30
0.0
 40
0.0335000000000001
100
AcDbArc
 50
180.0
 51
285.0
  0
LINE
  5
62
330
1F
100
AcDbEntity
  8
0
  6
Continuous
 62
     7
370
    30
100
AcDbLine
 10
7.8775324801
 20
4.1177472781
 30
0.0
 11
7.8775324801
 21
3.8999527274
 31
0.0
  0
LINE
  5
63
330
1F
100
AcDbEntity
  8
0
  6
Continuous
 62
     7
370
    30
100
AcDbLine
 10
7.9035325131
 20
4.1177472781
 30
0.0
 11
7.9035325131
 21
3.8999527274
 31
0.0
  0
LINE
  5
64
330
1F
100
AcDbEntity
  8
0
  6
Continuous
 62
     7
370
    30
100
AcDbLine
 10
7.6310527542
 20
5.352541332
 30
0.0
 11
7.6570527871
 21
5.352541332
 31
0.0
  0
LINE
  5
65
330
1F
100
AcDbEntity
  8
0
  6
Continuous
 62
     7
370
    30
100
AcDbLine
 10
7.6570527871
 20
5.352541332
 30
0.0
 11
7.6570527871
 21
4.7910287469
 31
0.0
  0
LINE
  5
66
330
1F
100
AcDbEntity
  8
0
  6
Continuous
 62
     7
370
    30
100
AcDbLine
 10
7.3307384767
 20
3.8657676156
 30
0.0
 11
7.3567385097
 21
3.8657676156
 31
0.0
  0
LINE
  5
67
330
1F
100
AcDbEntity
  8
0
  6
Continuous
 62
     7
370
    30
100
AcDbLine
 10
7.3567385097
 20
3.7644256397
 30
0.0
 11
7.3567385097
 21
3.8657676156
 31
0.0
  0
LINE
  5
68
330
1F
100
AcDbEntity
  8
0
  6
Continuous
 62
     7
370
    30
100
AcDbLine
 10
7.3307384767
 20
3.7644256397
 30
0.0
 11
7.3307384767
 21
3.8657676156
 31
0.0
  0
ARC
  5
69
330
1F
100
AcDbEntity
  8
0
  6
Continuous
 62
     7
370
    30
100
AcDbCircle
 10
7.6645528222
 20
4.7910287326
 30
0.0
 40
0.033500000000001
100
AcDbArc
 50
180.0
 51
195.0
  0
ARC
  5
6A
330
1F
100
AcDbEntity
  8
0
  6
Continuous
 62
     7
370
    30
100
AcDbCircle
 10
7.6645528222
 20
4.7910287326
 30
0.0
 40
0.0075000000000007
100
AcDbArc
 50
180.0
 51
195.0
  0
ARC
  5
6B
330
1F
100
AcDbEntity
  8
0
  6
Continuous
 62
     7
370
    30
100
AcDbCircle
 10
7.8700325159
 20
3.8999527779
 30
0.0
 40
0.0075000000000012
100
AcDbArc
 50
285.0
 51
0.0
  0
ARC
  5
6C
330
1F
100
AcDbEntity
  8
0
  6
Continuous
 62
     7
370
    30
100
AcDbCircle
 10
7.8700325159
 20
3.8999527779
 30
0.0
 40
0.033500000000001
100
AcDbArc
 50
285.0
 51
0.0
  0
LINE
  5
6D
330
1F
100
AcDbEntity
  8
0
  6
Continuous
 62
     7
370
    30
100
AcDbLine
 10
7.7845325145
 20
4.2128369263
 30
0.0
 11
7.7845325145
 21
4.1587473244
 31
0.0
  0
LINE
  5
6E
330
1F
100
AcDbEntity
  8
0
  6
Continuous
 62
     7
370
    30
100
AcDbLine
 10
7.8105325475
 20
4.2128369263
 30
0.0
 11
7.8105325475
 21
4.1587473244
 31
0.0
  0
LINE
  5
6F
330
1F
100
AcDbEntity
  8
0
  6
Continuous
 62
     7
370
    30
100
AcDbLine
 10
7.871973731
 20
3.8927083577
 30
0.0
 11
7.3661796273
 21
3.75718127
 31
0.0
  0
LINE
  5
70
330
1F
100
AcDbEntity
  8
0
  6
Continuous
 62
     7
370
    30
100
AcDbLine
 10
7.8787030133
 20
3.8675943279
 30
0.0
 11
7.3729089096
 21
3.7320670935
 31
0.0
  0
ARC
  5
71
330
1F
100
AcDbEntity
  8
0
  6
Continuous
 62
     7
370
    30
100
AcDbCircle
 10
7.8180325159
 20
4.1587473238
 30
0.0
 40
0.033500000000001
100
AcDbArc
 50
180.0
 51
270.0
  0
ARC
  5
72
330
1F
100
AcDbEntity
  8
0
  6
Continuous
 62
     7
370
    30
100
AcDbCircle
 10
7.8180325159
 20
4.1587473238
 30
0.0
 40
0.0075000000000003
100
AcDbArc
 50
180.0
 51
270.0
  0
ARC
  5
73
330
1F
100
AcDbEntity
  8
0
  6
Continuous
 62
     7
370
    30
100
AcDbCircle
 10
7.7770325159
 20
4.2128369652
 30
0.0
 40
0.0075000000000007
100
AcDbArc
 50
0.0
 51
15.0
  0
ARC
  5
74
330
1F
100
AcDbEntity
  8
0
  6
Continuous
 62
     7
370
    30
100
AcDbCircle
 10
7.7770325159
 20
4.2128369652
 30
0.0
 40
0.0335000000000005
100
AcDbArc
 50
0.0
 51
15.0
  0
LINE
  5
75
330
1F
100
AcDbEntity
  8
0
  6
Continuous
 62
     7
370
    30
100
AcDbLine
 10
7.6321942476
 20
4.7823582804
 30
0.0
 11
7.7842770241
 21
4.2147780372
 31
0.0
  0
LINE
  5
76
330
1F
100
AcDbEntity
  8
0
  6
Continuous
 62
     7
370
    30
100
AcDbLine
 10
7.6573084242
 20
4.7890875627
 30
0.0
 11
7.809391054
 21
4.2215074661
 31
0.0
  0
LINE
  5
77
330
1F
100
AcDbEntity
  8
0
  6
Continuous
 62
     7
370
    30
100
AcDbLine
 10
7.8180325541
 20
4.1512473177
 30
0.0
 11
7.8700324734
 21
4.1512473177
 31
0.0
  0
LINE
  5
78
330
1F
100
AcDbEntity
  8
0
  6
Continuous
 62
     7
370
    30
100
AcDbLine
 10
7.8180325541
 20
4.1252472848
 30
0.0
 11
7.8700324734
 21
4.1252472848
 31
0.0
  0
ARC
  5
79
330
1F
100
AcDbEntity
  8
0
  6
Continuous
 62
     7
370
    30
100
AcDbCircle
 10
7.8700325159
 20
4.1177473238
 30
0.0
 40
0.033500000000001
100
AcDbArc
 50
0.0
 51
90.0
  0
ARC
  5
7A
330
1F
100
AcDbEntity
  8
0
  6
Continuous
 62
     7
370
    30
100
AcDbCircle
 10
7.8700325159
 20
4.1177473238
 30
0.0
 40
0.0075000000000012
100
AcDbArc
 50
0.0
 51
90.0
  0
LINE
  5
7B
330
1F
100
AcDbEntity
  8
0
  6
Continuous
 62
     7
370
    30
100
AcDbLine
 10
8.0410527778
 20
5.7145413384
 30
0.0
 11
7.6660528832
 21
5.7145413384
 31
0.0
  0
LINE
  5
7C
330
1F
100
AcDbEntity
  8
0
  6
Continuous
 62
     7
370
    30
100
AcDbLine
 10
7.6660528832
 20
5.7145413384
 30
0.0
 11
7.6660528832
 21
5.6505413369
 31
0.0
  0
LINE
  5
7D
330
1F
100
AcDbEntity
  8
0
  6
Continuous
 62
     7
370
    30
100
AcDbLine
 10
7.6660528832
 20
5.6505413369
 30
0.0
 11
7.7280528603
 21
5.6505413369
 31
0.0
  0
LINE
  5
7E
330
1F
100
AcDbEntity
  8
0
  6
Continuous
 62
     7
370
    30
100
AcDbLine
 10
7.7280528603
 20
5.605541338
 30
0.0
 11
7.6310527542
 21
5.605541338
 31
0.0
  0
LINE
  5
7F
330
1F
100
AcDbEntity
  8
0
  6
Continuous
 62
     7
370
    30
100
AcDbLine
 10
7.5860528607
 20
4.5095413387
 30
0.0
 11
7.5860528607
 21
4.5681653081
 31
0.0
  0
LINE
  5
80
330
1F
100
AcDbEntity
  8
0
  6
Continuous
 62
     7
370
    30
100
AcDbLine
 10
7.5860528607
 20
4.5681653081
 30
0.0
 11
7.4510528869
 21
4.5681653081
 31
0.0
  0
LINE
  5
81
330
1F
100
AcDbEntity
  8
0
  6
Continuous
 62
     7
370
    30
100
AcDbLine
 10
7.4510528869
 20
4.6081653194
 30
0.0
 11
7.5860528607
 21
4.6081653194
 31
0.0
  0
LINE
  5
82
330
1F
100
AcDbEntity
  8
0
  6
Continuous
 62
     7
370
    30
100
AcDbLine
 10
7.5860528607
 20
5.0971823436
 30
0.0
 11
7.5860528607
 21
5.7145413384
 31
0.0
  0
LINE
  5
83
330
1F
100
AcDbEntity
  8
0
  6
Continuous
 62
     7
370
    30
100
AcDbLine
 10
7.5860528607
 20
5.7145413384
 30
0.0
 11
7.493052895
 21
5.7145413384
 31
0.0
  0
LINE
  5
84
330
1F
100
AcDbEntity
  8
0
  6
Continuous
 62
     7
370
    30
100
AcDbLine
 10
8.086052818
 20
5.5725413388
 30
0.0
 11
8.0410527778
 21
5.5725413388
 31
0.0
  0
LINE
  5
85
330
1F
100
AcDbEntity
  8
0
  6
Continuous
 62
     7
370
    30
100
AcDbLine
 10
8.0410527778
 20
5.605541338
 30
0.0
 11
7.9790528007
 21
5.605541338
 31
0.0
  0
LINE
  5
86
330
1F
100
AcDbEntity
  8
0
  6
Continuous
 62
     7
370
    30
100
AcDbLine
 10
7.9790528007
 20
5.605541338
 30
0.0
 11
7.9790528007
 21
5.6505413369
 31
0.0
  0
LINE
  5
87
330
1F
100
AcDbEntity
  8
0
  6
Continuous
 62
     7
370
    30
100
AcDbLine
 10
7.9790528007
 20
5.6505413369
 30
0.0
 11
8.0410527778
 21
5.6505413369
 31
0.0
  0
LINE
  5
88
330
1F
100
AcDbEntity
  8
0
  6
Continuous
 62
     7
370
    30
100
AcDbLine
 10
7.6310527542
 20
4.5095413387
 30
0.0
 11
7.5860528607
 21
4.5095413387
 31
0.0
  0
LINE
  5
89
330
1F
100
AcDbEntity
  8
0
  6
Continuous
 62
     7
370
    30
100
AcDbLine
 10
7.4560528424
 20
4.9874858174
 30
0.0
 11
7.5560528339
 21
5.0452208138
 31
0.0
  0
LINE
  5
8A
330
1F
100
AcDbEntity
  8
0
  6
Continuous
 62
     7
370
    30
100
AcDbLine
 10
7.6310527542
 20
5.605541338
 30
0.0
 11
7.6310527542
 21
4.5095413387
 31
0.0
  0
ARC
  5
8B
330
1F
100
AcDbEntity
  8
0
  6
Continuous
 62
     7
370
    30
100
AcDbCircle
 10
7.4660528222
 20
4.9701652958
 30
0.0
 40
0.0200000000000004
100
AcDbArc
 50
120.0
 51
300.0
  0
LINE
  5
8C
330
1F
100
AcDbEntity
  8
0
  6
Continuous
 62
     7
370
    30
100
AcDbLine
 10
7.493052895
 20
5.7595413419
 30
0.0
 11
8.086052818
 21
5.7595413419
 31
0.0
  0
LINE
  5
8D
330
1F
100
AcDbEntity
  8
0
  6
Continuous
 62
     7
370
    30
100
AcDbLine
 10
8.086052818
 20
5.7595413419
 30
0.0
 11
8.086052818
 21
5.5725413388
 31
0.0
  0
ARC
  5
8E
330
1F
100
AcDbEntity
  8
0
  6
Continuous
 62
     7
370
    30
100
AcDbCircle
 10
7.5710528222
 20
4.9903725552
 30
0.0
 40
0.0150000000000007
100
AcDbArc
 50
0.0
 51
120.0
  0
LINE
  5
8F
330
1F
100
AcDbEntity
  8
0
  6
Continuous
 62
     7
370
    30
100
AcDbLine
 10
8.0410527778
 20
5.6505413369
 30
0.0
 11
8.0410527778
 21
5.7145413384
 31
0.0
  0
LINE
  5
90
330
1F
100
AcDbEntity
  8
0
  6
Continuous
 62
     7
370
    30
100
AcDbLine
 10
7.493052895
 20
5.7145413384
 30
0.0
 11
7.493052895
 21
5.7595413419
 31
0.0
  0
LINE
  5
91
330
1F
100
AcDbEntity
  8
0
  6
Continuous
 62
     7
370
    30
100
AcDbLine
 10
7.4510528869
 20
4.5681653081
 30
0.0
 11
7.4510528869
 21
4.6081653194
 31
0.0
  0
LINE
  5
92
330
1F
100
AcDbEntity
  8
0
  6
Continuous
 62
     7
370
    30
100
AcDbLine
 10
7.5635528406
 20
5.003362924
 30
0.0
 11
7.4760528114
 21
4.9528447976
 31
0.0
  0
LINE
  5
93
330
1F
100
AcDbEntity
  8
0
  6
Continuous
 62
     7
370
    30
100
AcDbLine
 10
8.0410527778
 20
5.5725413388
 30
0.0
 11
8.0410527778
 21
5.605541338
 31
0.0
  0
LINE
  5
94
330
1F
100
AcDbEntity
  8
0
  6
Continuous
 62
     7
370
    30
100
AcDbLine
 10
7.5860528607
 20
4.6081653194
 30
0.0
 11
7.5860528607
 21
4.9903725508
 31
0.0
  0
LINE
  5
95
330
1F
100
AcDbEntity
  8
0
  6
Continuous
 62
     7
370
    30
100
AcDbLine
 10
7.7280528603
 20
5.6505413369
 30
0.0
 11
7.7280528603
 21
5.605541338
 31
0.0
  0
ARC
  5
96
330
1F
100
AcDbEntity
  8
0
  6
Continuous
 62
     7
370
    30
100
AcDbCircle
 10
7.5260528222
 20
5.097182355
 30
0.0
 40
0.0599999999999996
100
AcDbArc
 50
300.0
 51
0.0
  0
LINE
  5
97
330
1F
100
AcDbEntity
  8
0
  6
Continuous
 62
     7
370
    30
100
AcDbLine
 10
2.9430528437
 20
5.6505413369
 30
0.0
 11
2.8810528666
 21
5.6505413369
 31
0.0
  0
LINE
  5
98
330
1F
100
AcDbEntity
  8
0
  6
Continuous
 62
     7
370
    30
100
AcDbLine
 10
2.9430528437
 20
5.605541338
 30
0.0
 11
2.9430528437
 21
5.6505413369
 31
0.0
  0
LINE
  5
99
330
1F
100
AcDbEntity
  8
0
  6
Continuous
 62
     7
370
    30
100
AcDbLine
 10
2.8810528666
 20
5.605541338
 30
0.0
 11
2.9430528437
 21
5.605541338
 31
0.0
  0
LINE
  5
9A
330
1F
100
AcDbEntity
  8
0
  6
Continuous
 62
     7
370
    30
100
AcDbLine
 10
2.8810528666
 20
5.5725413388
 30
0.0
 11
2.8810528666
 21
5.605541338
 31
0.0
  0
LINE
  5
9B
330
1F
100
AcDbEntity
  8
0
  6
Continuous
 62
     7
370
    30
100
AcDbLine
 10
2.8360528264
 20
5.5725413388
 30
0.0
 11
2.8810528666
 21
5.5725413388
 31
0.0
  0
LINE
  5
9C
330
1F
100
AcDbEntity
  8
0
  6
Continuous
 62
     7
370
    30
100
AcDbLine
 10
2.8360528264
 20
5.7595413419
 30
0.0
 11
2.8360528264
 21
5.5725413388
 31
0.0
  0
LINE
  5
9D
330
1F
100
AcDbEntity
  8
0
  6
Continuous
 62
     7
370
    30
100
AcDbLine
 10
3.4290527494
 20
5.7595413419
 30
0.0
 11
2.8360528264
 21
5.7595413419
 31
0.0
  0
LINE
  5
9E
330
1F
100
AcDbEntity
  8
0
  6
Continuous
 62
     7
370
    30
100
AcDbLine
 10
3.4290527494
 20
5.7145413384
 30
0.0
 11
3.4290527494
 21
5.7595413419
 31
0.0
  0
LINE
  5
9F
330
1F
100
AcDbEntity
  8
0
  6
Continuous
 62
     7
370
    30
100
AcDbLine
 10
3.3360527837
 20
5.7145413384
 30
0.0
 11
3.4290527494
 21
5.7145413384
 31
0.0
  0
LINE
  5
A0
330
1F
100
AcDbEntity
  8
0
  6
Continuous
 62
     7
370
    30
100
AcDbLine
 10
3.3360527837
 20
5.0971823436
 30
0.0
 11
3.3360527837
 21
5.7145413384
 31
0.0
  0
ARC
  5
A1
330
1F
100
AcDbEntity
  8
0
  6
Continuous
 62
     7
370
    30
100
AcDbCircle
 10
3.3960528222
 20
5.097182355
 30
0.0
 40
0.0600000000000001
100
AcDbArc
 50
180.0
 51
240.0
  0
LINE
  5
A2
330
1F
100
AcDbEntity
  8
0
  6
Continuous
 62
     7
370
    30
100
AcDbLine
 10
3.4660528019
 20
4.9874858174
 30
0.0
 11
3.3660528105
 21
5.0452208138
 31
0.0
  0
LINE
  5
A3
330
1F
100
AcDbEntity
  8
0
  6
Continuous
 62
     7
370
    30
100
AcDbLine
 10
3.3585528038
 20
5.003362924
 30
0.0
 11
3.446052833
 21
4.9528447976
 31
0.0
  0
ARC
  5
A4
330
1F
100
AcDbEntity
  8
0
  6
Continuous
 62
     7
370
    30
100
AcDbCircle
 10
3.3510528222
 20
4.9903725552
 30
0.0
 40
0.0150000000000014
100
AcDbArc
 50
60.0
 51
180.0
  0
LINE
  5
A5
330
1F
100
AcDbEntity
  8
0
  6
Continuous
 62
     7
370
    30
100
AcDbLine
 10
3.3360527837
 20
4.6081653194
 30
0.0
 11
3.3360527837
 21
4.9903725508
 31
0.0
  0
LINE
  5
A6
330
1F
100
AcDbEntity
  8
0
  6
Continuous
 62
     7
370
    30
100
AcDbLine
 10
3.4710527575
 20
4.6081653194
 30
0.0
 11
3.3360527837
 21
4.6081653194
 31
0.0
  0
LINE
  5
A7
330
1F
100
AcDbEntity
  8
0
  6
Continuous
 62
     7
370
    30
100
AcDbLine
 10
3.4710527575
 20
4.5681653081
 30
0.0
 11
3.4710527575
 21
4.6081653194
 31
0.0
  0
LINE
  5
A8
330
1F
100
AcDbEntity
  8
0
  6
Continuous
 62
     7
370
    30
100
AcDbLine
 10
3.3360527837
 20
4.5681653081
 30
0.0
 11
3.4710527575
 21
4.5681653081
 31
0.0
  0
LINE
  5
A9
330
1F
100
AcDbEntity
  8
0
  6
Continuous
 62
     7
370
    30
100
AcDbLine
 10
3.3360527837
 20
4.5095413387
 30
0.0
 11
3.3360527837
 21
4.5681653081
 31
0.0
  0
LINE
  5
AA
330
1F
100
AcDbEntity
  8
0
  6
Continuous
 62
     7
370
    30
100
AcDbLine
 10
3.2910528902
 20
4.5095413387
 30
0.0
 11
3.3360527837
 21
4.5095413387
 31
0.0
  0
LINE
  5
AB
330
1F
100
AcDbEntity
  8
0
  6
Continuous
 62
     7
370
    30
100
AcDbLine
 10
3.2910528902
 20
5.605541338
 30
0.0
 11
3.2910528902
 21
4.5095413387
 31
0.0
  0
LINE
  5
AC
330
1F
100
AcDbEntity
  8
0
  6
Continuous
 62
     7
370
    30
100
AcDbLine
 10
3.1940527841
 20
5.605541338
 30
0.0
 11
3.2910528902
 21
5.605541338
 31
0.0
  0
LINE
  5
AD
330
1F
100
AcDbEntity
  8
0
  6
Continuous
 62
     7
370
    30
100
AcDbLine
 10
3.1940527841
 20
5.6505413369
 30
0.0
 11
3.1940527841
 21
5.605541338
 31
0.0
  0
LINE
  5
AE
330
1F
100
AcDbEntity
  8
0
  6
Continuous
 62
     7
370
    30
100
AcDbLine
 10
3.2560527612
 20
5.6505413369
 30
0.0
 11
3.1940527841
 21
5.6505413369
 31
0.0
  0
LINE
  5
AF
330
1F
100
AcDbEntity
  8
0
  6
Continuous
 62
     7
370
    30
100
AcDbLine
 10
3.2560527612
 20
5.7145413384
 30
0.0
 11
3.2560527612
 21
5.6505413369
 31
0.0
  0
LINE
  5
B0
330
1F
100
AcDbEntity
  8
0
  6
Continuous
 62
     7
370
    30
100
AcDbLine
 10
2.8810528666
 20
5.7145413384
 30
0.0
 11
3.2560527612
 21
5.7145413384
 31
0.0
  0
LINE
  5
B1
330
1F
100
AcDbEntity
  8
0
  6
Continuous
 62
     7
370
    30
100
AcDbLine
 10
2.8810528666
 20
5.6505413369
 30
0.0
 11
2.8810528666
 21
5.7145413384
 31
0.0
  0
ARC
  5
B2
330
1F
100
AcDbEntity
  8
0
  6
Continuous
 62
     7
370
    30
100
AcDbCircle
 10
3.4560528222
 20
4.9701652958
 30
0.0
 40
0.02
100
AcDbArc
 50
240.0
 51
60.0
  0
LINE
  5
B3
330
1F
100
AcDbEntity
  8
0
  6
Continuous
 62
     7
370
    30
100
AcDbLine
 10
7.1490528423
 20
5.6995413434
 30
0.0
 11
7.1490528423
 21
5.5371891497
 31
0.0
  0
ARC
  5
B4
330
1F
100
AcDbEntity
  8
0
  6
Continuous
 62
     7
370
    30
100
AcDbCircle
 10
7.1640528222
 20
5.6995413388
 30
0.0
 40
0.0149999999999997
100
AcDbArc
 50
90.0
 51
180.0
  0
LINE
  5
B5
330
1F
100
AcDbEntity
  8
0
  6
Continuous
 62
     7
370
    30
100
AcDbLine
 10
7.2740527582
 20
5.7145413384
 30
0.0
 11
7.1640528556
 21
5.7145413384
 31
0.0
  0
LINE
  5
B6
330
1F
100
AcDbEntity
  8
0
  6
Continuous
 62
     7
370
    30
100
AcDbLine
 10
7.2240527625
 20
5.6645413427
 30
0.0
 11
7.2740527582
 21
5.7145413384
 31
0.0
  0
LINE
  5
B7
330
1F
100
AcDbEntity
  8
0
  6
Continuous
 62
     7
370
    30
100
AcDbLine
 10
7.2240527625
 20
5.4655413399
 30
0.0
 11
7.2240527625
 21
5.6645413427
 31
0.0
  0
LINE
  5
B8
330
1F
100
AcDbEntity
  8
0
  6
Continuous
 62
     7
370
    30
100
AcDbLine
 10
7.2570528213
 20
5.4325413361
 30
0.0
 11
7.2240527625
 21
5.4655413399
 31
0.0
  0
LINE
  5
B9
330
1F
100
AcDbEntity
  8
0
  6
Continuous
 62
     7
370
    30
100
AcDbLine
 10
7.2570528213
 20
5.1045413319
 30
0.0
 11
7.2570528213
 21
5.4325413361
 31
0.0
  0
ARC
  5
BA
330
1F
100
AcDbEntity
  8
0
  6
Continuous
 62
     7
370
    30
100
AcDbCircle
 10
7.2420528222
 20
5.1045413388
 30
0.0
 40
0.0150000000000006
100
AcDbArc
 50
270.0
 51
0.0
  0
LINE
  5
BB
330
1F
100
AcDbEntity
  8
0
  6
Continuous
 62
     7
370
    30
100
AcDbLine
 10
7.1800528308
 20
5.0895413552
 30
0.0
 11
7.2420528079
 21
5.0895413552
 31
0.0
  0
ARC
  5
BC
330
1F
100
AcDbEntity
  8
0
  6
Continuous
 62
     7
370
    30
100
AcDbCircle
 10
7.1800528222
 20
5.1045413388
 30
0.0
 40
0.0150000000000015
100
AcDbArc
 50
180.0
 51
270.0
  0
LINE
  5
BD
330
1F
100
AcDbEntity
  8
0
  6
Continuous
 62
     7
370
    30
100
AcDbLine
 10
7.1650528174
 20
5.4325413361
 30
0.0
 11
7.1650528174
 21
5.1045413319
 31
0.0
  0
LINE
  5
BE
330
1F
100
AcDbEntity
  8
0
  6
Continuous
 62
     7
370
    30
100
AcDbLine
 10
7.1250528795
 20
5.4325413361
 30
0.0
 11
7.1650528174
 21
5.4325413361
 31
0.0
  0
ARC
  5
BF
330
1F
100
AcDbEntity
  8
0
  6
Continuous
 62
     7
370
    30
100
AcDbCircle
 10
7.0240528222
 20
5.5371891494
 30
0.0
 40
0.1250000000000009
100
AcDbArc
 50
323.9009837413
 51
0.0
  0
LINE
  5
C0
330
1F
100
AcDbEntity
  8
0
  6
Continuous
 62
     7
370
    30
100
AcDbLine
 10
7.1250528795
 20
5.463541343
 30
0.0
 11
7.1250528795
 21
5.4325413361
 31
0.0
  0
LINE
  5
C1
330
1F
100
AcDbEntity
  8
0
  6
Continuous
 62
     7
370
    30
100
AcDbLine
 10
6.8990528636
 20
5.6995413434
 30
0.0
 11
6.8990528636
 21
5.5371891497
 31
0.0
  0
ARC
  5
C2
330
1F
100
AcDbEntity
  8
0
  6
Continuous
 62
     7
370
    30
100
AcDbCircle
 10
6.9140528222
 20
5.6995413388
 30
0.0
 40
0.0149999999999997
100
AcDbArc
 50
90.0
 51
180.0
  0
LINE
  5
C3
330
1F
100
AcDbEntity
  8
0
  6
Continuous
 62
     7
370
    30
100
AcDbLine
 10
7.0240527796
 20
5.7145413384
 30
0.0
 11
6.914052877
 21
5.7145413384
 31
0.0
  0
LINE
  5
C4
330
1F
100
AcDbEntity
  8
0
  6
Continuous
 62
     7
370
    30
100
AcDbLine
 10
6.9740527839
 20
5.6645413427
 30
0.0
 11
7.0240527796
 21
5.7145413384
 31
0.0
  0
LINE
  5
C5
330
1F
100
AcDbEntity
  8
0
  6
Continuous
 62
     7
370
    30
100
AcDbLine
 10
6.9740527839
 20
5.4655413399
 30
0.0
 11
6.9740527839
 21
5.6645413427
 31
0.0
  0
LINE
  5
C6
330
1F
100
AcDbEntity
  8
0
  6
Continuous
 62
     7
370
    30
100
AcDbLine
 10
7.0070528427
 20
5.4325413361
 30
0.0
 11
6.9740527839
 21
5.4655413399
 31
0.0
  0
LINE
  5
C7
330
1F
100
AcDbEntity
  8
0
  6
Continuous
 62
     7
370
    30
100
AcDbLine
 10
7.0070528427
 20
5.1045413319
 30
0.0
 11
7.0070528427
 21
5.4325413361
 31
0.0
  0
ARC
  5
C8
330
1F
100
AcDbEntity
  8
0
  6
Continuous
 62
     7
370
    30
100
AcDbCircle
 10
6.9920528222
 20
5.1045413388
 30
0.0
 40
0.0149999999999997
100
AcDbArc
 50
270.0
 51
0.0
  0
LINE
  5
C9
330
1F
100
AcDbEntity
  8
0
  6
Continuous
 62
     7
370
    30
100
AcDbLine
 10
6.9300528522
 20
5.0895413552
 30
0.0
 11
6.9920528293
 21
5.0895413552
 31
0.0
  0
ARC
  5
CA
330
1F
100
AcDbEntity
  8
0
  6
Continuous
 62
     7
370
    30
100
AcDbCircle
 10
6.9300528222
 20
5.1045413388
 30
0.0
 40
0.0149999999999997
100
AcDbArc
 50
180.0
 51
270.0
  0
LINE
  5
CB
330
1F
100
AcDbEntity
  8
0
  6
Continuous
 62
     7
370
    30
100
AcDbLine
 10
6.9150528388
 20
5.4325413361
 30
0.0
 11
6.9150528388
 21
5.1045413319
 31
0.0
  0
LINE
  5
CC
330
1F
100
AcDbEntity
  8
0
  6
Continuous
 62
     7
370
    30
100
AcDbLine
 10
6.8750527542
 20
5.4325413361
 30
0.0
 11
6.9150528388
 21
5.4325413361
 31
0.0
  0
ARC
  5
CD
330
1F
100
AcDbEntity
  8
0
  6
Continuous
 62
     7
370
    30
100
AcDbCircle
 10
6.7740528222
 20
5.5371891494
 30
0.0
 40
0.1250000000000009
100
AcDbArc
 50
323.9009837413
 51
0.0
  0
LINE
  5
CE
330
1F
100
AcDbEntity
  8
0
  6
Continuous
 62
     7
370
    30
100
AcDbLine
 10
6.8750527542
 20
5.463541343
 30
0.0
 11
6.8750527542
 21
5.4325413361
 31
0.0
  0
LINE
  5
CF
330
1F
100
AcDbEntity
  8
0
  6
Continuous
 62
     7
370
    30
100
AcDbLine
 10
6.6490528116
 20
5.6995413434
 30
0.0
 11
6.6490528116
 21
5.5371891497
 31
0.0
  0
ARC
  5
D0
330
1F
100
AcDbEntity
  8
0
  6
Continuous
 62
     7
370
    30
100
AcDbCircle
 10
6.6640528222
 20
5.6995413388
 30
0.0
 40
0.0149999999999997
100
AcDbArc
 50
90.0
 51
180.0
  0
LINE
  5
D1
330
1F
100
AcDbEntity
  8
0
  6
Continuous
 62
     7
370
    30
100
AcDbLine
 10
6.774052801
 20
5.7145413384
 30
0.0
 11
6.664052825
 21
5.7145413384
 31
0.0
  0
LINE
  5
D2
330
1F
100
AcDbEntity
  8
0
  6
Continuous
 62
     7
370
    30
100
AcDbLine
 10
6.7240528052
 20
5.6645413427
 30
0.0
 11
6.774052801
 21
5.7145413384
 31
0.0
  0
LINE
  5
D3
330
1F
100
AcDbEntity
  8
0
  6
Continuous
 62
     7
370
    30
100
AcDbLine
 10
6.7240528052
 20
5.4655413399
 30
0.0
 11
6.7240528052
 21
5.6645413427
 31
0.0
  0
LINE
  5
D4
330
1F
100
AcDbEntity
  8
0
  6
Continuous
 62
     7
370
    30
100
AcDbLine
 10
6.757052864
 20
5.1045413319
 30
0.0
 11
6.757052864
 21
5.4325413361
 31
0.0
  0
ARC
  5
D5
330
1F
100
AcDbEntity
  8
0
  6
Continuous
 62
     7
370
    30
100
AcDbCircle
 10
6.7420528222
 20
5.1045413388
 30
0.0
 40
0.0149999999999997
100
AcDbArc
 50
270.0
 51
0.0
  0
LINE
  5
D6
330
1F
100
AcDbEntity
  8
0
  6
Continuous
 62
     7
370
    30
100
AcDbLine
 10
6.6800528002
 20
5.0895413552
 30
0.0
 11
6.7420528506
 21
5.0895413552
 31
0.0
  0
ARC
  5
D7
330
1F
100
AcDbEntity
  8
0
  6
Continuous
 62
     7
370
    30
100
AcDbCircle
 10
6.6800528222
 20
5.1045413388
 30
0.0
 40
0.0149999999999997
100
AcDbArc
 50
180.0
 51
270.0
  0
LINE
  5
D8
330
1F
100
AcDbEntity
  8
0
  6
Continuous
 62
     7
370
    30
100
AcDbLine
 10
6.6650527868
 20
5.4325413361
 30
0.0
 11
6.6650527868
 21
5.1045413319
 31
0.0
  0
LINE
  5
D9
330
1F
100
AcDbEntity
  8
0
  6
Continuous
 62
     7
370
    30
100
AcDbLine
 10
6.6250528489
 20
5.4325413361
 30
0.0
 11
6.6650527868
 21
5.4325413361
 31
0.0
  0
ARC
  5
DA
330
1F
100
AcDbEntity
  8
0
  6
Continuous
 62
     7
370
    30
100
AcDbCircle
 10
6.5240528222
 20
5.5371891494
 30
0.0
 40
0.1250000000000001
100
AcDbArc
 50
323.9009837413
 51
0.0
  0
LINE
  5
DB
330
1F
100
AcDbEntity
  8
0
  6
Continuous
 62
     7
370
    30
100
AcDbLine
 10
6.757052864
 20
5.4325413361
 30
0.0
 11
6.7240528052
 21
5.4655413399
 31
0.0
  0
LINE
  5
DC
330
1F
100
AcDbEntity
  8
0
  6
Continuous
 62
     7
370
    30
100
AcDbLine
 10
6.6250528489
 20
5.463541343
 30
0.0
 11
6.6250528489
 21
5.4325413361
 31
0.0
  0
LINE
  5
DD
330
1F
100
AcDbEntity
  8
0
  6
Continuous
 62
     7
370
    30
100
AcDbLine
 10
6.399052833
 20
5.6995413434
 30
0.0
 11
6.399052833
 21
5.5371891497
 31
0.0
  0
ARC
  5
DE
330
1F
100
AcDbEntity
  8
0
  6
Continuous
 62
     7
370
    30
100
AcDbCircle
 10
6.4140528222
 20
5.6995413388
 30
0.0
 40
0.0150000000000006
100
AcDbArc
 50
90.0
 51
180.0
  0
LINE
  5
DF
330
1F
100
AcDbEntity
  8
0
  6
Continuous
 62
     7
370
    30
100
AcDbLine
 10
6.5240528223
 20
5.7145413384
 30
0.0
 11
6.4140528464
 21
5.7145413384
 31
0.0
  0
LINE
  5
E0
330
1F
100
AcDbEntity
  8
0
  6
Continuous
 62
     7
370
    30
100
AcDbLine
 10
6.4740528266
 20
5.6645413427
 30
0.0
 11
6.5240528223
 21
5.7145413384
 31
0.0
  0
LINE
  5
E1
330
1F
100
AcDbEntity
  8
0
  6
Continuous
 62
     7
370
    30
100
AcDbLine
 10
6.4740528266
 20
5.4655413399
 30
0.0
 11
6.4740528266
 21
5.6645413427
 31
0.0
  0
LINE
  5
E2
330
1F
100
AcDbEntity
  8
0
  6
Continuous
 62
     7
370
    30
100
AcDbLine
 10
6.507052812
 20
5.1045413319
 30
0.0
 11
6.507052812
 21
5.4325413361
 31
0.0
  0
ARC
  5
E3
330
1F
100
AcDbEntity
  8
0
  6
Continuous
 62
     7
370
    30
100
AcDbCircle
 10
6.4920528222
 20
5.1045413388
 30
0.0
 40
0.0149999999999997
100
AcDbArc
 50
270.0
 51
0.0
  0
LINE
  5
E4
330
1F
100
AcDbEntity
  8
0
  6
Continuous
 62
     7
370
    30
100
AcDbLine
 10
6.4300528215
 20
5.0895413552
 30
0.0
 11
6.4920527986
 21
5.0895413552
 31
0.0
  0
ARC
  5
E5
330
1F
100
AcDbEntity
  8
0
  6
Continuous
 62
     7
370
    30
100
AcDbCircle
 10
6.4300528222
 20
5.1045413388
 30
0.0
 40
0.0150000000000006
100
AcDbArc
 50
180.0
 51
270.0
  0
LINE
  5
E6
330
1F
100
AcDbEntity
  8
0
  6
Continuous
 62
     7
370
    30
100
AcDbLine
 10
6.4150528082
 20
5.4325413361
 30
0.0
 11
6.4150528082
 21
5.1045413319
 31
0.0
  0
LINE
  5
E7
330
1F
100
AcDbEntity
  8
0
  6
Continuous
 62
     7
370
    30
100
AcDbLine
 10
6.3750527969
 20
5.4325413361
 30
0.0
 11
6.4150528082
 21
5.4325413361
 31
0.0
  0
ARC
  5
E8
330
1F
100
AcDbEntity
  8
0
  6
Continuous
 62
     7
370
    30
100
AcDbCircle
 10
6.2740528222
 20
5.5371891494
 30
0.0
 40
0.1250000000000008
100
AcDbArc
 50
323.9009837413
 51
0.0
  0
LINE
  5
E9
330
1F
100
AcDbEntity
  8
0
  6
Continuous
 62
     7
370
    30
100
AcDbLine
 10
6.507052812
 20
5.4325413361
 30
0.0
 11
6.4740528266
 21
5.4655413399
 31
0.0
  0
LINE
  5
EA
330
1F
100
AcDbEntity
  8
0
  6
Continuous
 62
     7
370
    30
100
AcDbLine
 10
6.3750527969
 20
5.463541343
 30
0.0
 11
6.3750527969
 21
5.4325413361
 31
0.0
  0
LINE
  5
EB
330
1F
100
AcDbEntity
  8
0
  6
Continuous
 62
     7
370
    30
100
AcDbLine
 10
6.1490528543
 20
5.6995413434
 30
0.0
 11
6.1490528543
 21
5.5371891497
 31
0.0
  0
ARC
  5
EC
330
1F
100
AcDbEntity
  8
0
  6
Continuous
 62
     7
370
    30
100
AcDbCircle
 10
6.1640528222
 20
5.6995413388
 30
0.0
 40
0.0149999999999997
100
AcDbArc
 50
90.0
 51
180.0
  0
LINE
  5
ED
330
1F
100
AcDbEntity
  8
0
  6
Continuous
 62
     7
370
    30
100
AcDbLine
 10
6.2240528479
 20
5.6645413427
 30
0.0
 11
6.2740528437
 21
5.7145413384
 31
0.0
  0
LINE
  5
EE
330
1F
100
AcDbEntity
  8
0
  6
Continuous
 62
     7
370
    30
100
AcDbLine
 10
6.2240528479
 20
5.4655413399
 30
0.0
 11
6.2240528479
 21
5.6645413427
 31
0.0
  0
LINE
  5
EF
330
1F
100
AcDbEntity
  8
0
  6
Continuous
 62
     7
370
    30
100
AcDbLine
 10
6.2570528334
 20
5.1045413319
 30
0.0
 11
6.2570528334
 21
5.4325413361
 31
0.0
  0
LINE
  5
F0
330
1F
100
AcDbEntity
  8
0
  6
Continuous
 62
     7
370
    30
100
AcDbLine
 10
6.1800528429
 20
5.0895413552
 30
0.0
 11
6.24205282
 21
5.0895413552
 31
0.0
  0
ARC
  5
F1
330
1F
100
AcDbEntity
  8
0
  6
Continuous
 62
     7
370
    30
100
AcDbCircle
 10
6.1800528222
 20
5.1045413388
 30
0.0
 40
0.0150000000000006
100
AcDbArc
 50
180.0
 51
270.0
  0
LINE
  5
F2
330
1F
100
AcDbEntity
  8
0
  6
Continuous
 62
     7
370
    30
100
AcDbLine
 10
6.1650528295
 20
5.4325413361
 30
0.0
 11
6.1650528295
 21
5.1045413319
 31
0.0
  0
LINE
  5
F3
330
1F
100
AcDbEntity
  8
0
  6
Continuous
 62
     7
370
    30
100
AcDbLine
 10
6.1250528183
 20
5.4325413361
 30
0.0
 11
6.1650528295
 21
5.4325413361
 31
0.0
  0
ARC
  5
F4
330
1F
100
AcDbEntity
  8
0
  6
Continuous
 62
     7
370
    30
100
AcDbCircle
 10
6.0240528222
 20
5.5371891494
 30
0.0
 40
0.1250000000000008
100
AcDbArc
 50
323.9009837413
 51
0.0
  0
LINE
  5
F5
330
1F
100
AcDbEntity
  8
0
  6
Continuous
 62
     7
370
    30
100
AcDbLine
 10
6.2740528437
 20
5.7145413384
 30
0.0
 11
6.1640527944
 21
5.7145413384
 31
0.0
  0
LINE
  5
F6
330
1F
100
AcDbEntity
  8
0
  6
Continuous
 62
     7
370
    30
100
AcDbLine
 10
6.2570528334
 20
5.4325413361
 30
0.0
 11
6.2240528479
 21
5.4655413399
 31
0.0
  0
ARC
  5
F7
330
1F
100
AcDbEntity
  8
0
  6
Continuous
 62
     7
370
    30
100
AcDbCircle
 10
6.2420528222
 20
5.1045413388
 30
0.0
 40
0.0149999999999997
100
AcDbArc
 50
270.0
 51
0.0
  0
LINE
  5
F8
330
1F
100
AcDbEntity
  8
0
  6
Continuous
 62
     7
370
    30
100
AcDbLine
 10
6.1250528183
 20
5.463541343
 30
0.0
 11
6.1250528183
 21
5.4325413361
 31
0.0
  0
LINE
  5
F9
330
1F
100
AcDbEntity
  8
0
  6
Continuous
 62
     7
370
    30
100
AcDbLine
 10
5.899052839
 20
5.6995413434
 30
0.0
 11
5.899052839
 21
5.5371891497
 31
0.0
  0
ARC
  5
FA
330
1F
100
AcDbEntity
  8
0
  6
Continuous
 62
     7
370
    30
100
AcDbCircle
 10
5.9140528222
 20
5.6995413388
 30
0.0
 40
0.0149999999999997
100
AcDbArc
 50
90.0
 51
180.0
  0
LINE
  5
FB
330
1F
100
AcDbEntity
  8
0
  6
Continuous
 62
     7
370
    30
100
AcDbLine
 10
5.9740528326
 20
5.6645413427
 30
0.0
 11
6.0240528284
 21
5.7145413384
 31
0.0
  0
LINE
  5
FC
330
1F
100
AcDbEntity
  8
0
  6
Continuous
 62
     7
370
    30
100
AcDbLine
 10
5.9740528326
 20
5.4655413399
 30
0.0
 11
5.9740528326
 21
5.6645413427
 31
0.0
  0
LINE
  5
FD
330
1F
100
AcDbEntity
  8
0
  6
Continuous
 62
     7
370
    30
100
AcDbLine
 10
6.0070528181
 20
5.1045413319
 30
0.0
 11
6.0070528181
 21
5.4325413361
 31
0.0
  0
LINE
  5
FE
330
1F
100
AcDbEntity
  8
0
  6
Continuous
 62
     7
370
    30
100
AcDbLine
 10
5.9300528276
 20
5.0895413552
 30
0.0
 11
5.9920528047
 21
5.0895413552
 31
0.0
  0
LINE
  5
FF
330
1F
100
AcDbEntity
  8
0
  6
Continuous
 62
     7
370
    30
100
AcDbLine
 10
5.9150528142
 20
5.4325413361
 30
0.0
 11
5.9150528142
 21
5.1045413319
 31
0.0
  0
ARC
  5
100
330
1F
100
AcDbEntity
  8
0
  6
Continuous
 62
     7
370
    30
100
AcDbCircle
 10
5.7740528222
 20
5.5371891494
 30
0.0
 40
0.1250000000000008
100
AcDbArc
 50
323.9009837413
 51
0.0
  0
LINE
  5
101
330
1F
100
AcDbEntity
  8
0
  6
Continuous
 62
     7
370
    30
100
AcDbLine
 10
6.0240528284
 20
5.7145413384
 30
0.0
 11
5.9140528158
 21
5.7145413384
 31
0.0
  0
ARC
  5
102
330
1F
100
AcDbEntity
  8
0
  6
Continuous
 62
     7
370
    30
100
AcDbCircle
 10
5.9300528222
 20
5.1045413388
 30
0.0
 40
0.0150000000000015
100
AcDbArc
 50
180.0
 51
270.0
  0
LINE
  5
103
330
1F
100
AcDbEntity
  8
0
  6
Continuous
 62
     7
370
    30
100
AcDbLine
 10
5.8750528396
 20
5.4325413361
 30
0.0
 11
5.9150528142
 21
5.4325413361
 31
0.0
  0
LINE
  5
104
330
1F
100
AcDbEntity
  8
0
  6
Continuous
 62
     7
370
    30
100
AcDbLine
 10
6.0070528181
 20
5.4325413361
 30
0.0
 11
5.9740528326
 21
5.4655413399
 31
0.0
  0
ARC
  5
105
330
1F
100
AcDbEntity
  8
0
  6
Continuous
 62
     7
370
    30
100
AcDbCircle
 10
5.9920528222
 20
5.1045413388
 30
0.0
 40
0.0150000000000006
100
AcDbArc
 50
270.0
 51
0.0
  0
LINE
  5
106
330
1F
100
AcDbEntity
  8
0
  6
Continuous
 62
     7
370
    30
100
AcDbLine
 10
5.8750528396
 20
5.463541343
 30
0.0
 11
5.8750528396
 21
5.4325413361
 31
0.0
  0
ARC
  5
107
330
1F
100
AcDbEntity
  8
0
  6
Continuous
 62
     7
370
    30
100
AcDbCircle
 10
5.5240528222
 20
5.5371891494
 30
0.0
 40
0.1250000000000009
100
AcDbArc
 50
323.9009837413
 51
0.0
  0
LINE
  5
108
330
1F
100
AcDbEntity
  8
0
  6
Continuous
 62
     7
370
    30
100
AcDbLine
 10
5.6490528237
 20
5.6995413434
 30
0.0
 11
5.6490528237
 21
5.5371891497
 31
0.0
  0
ARC
  5
109
330
1F
100
AcDbEntity
  8
0
  6
Continuous
 62
     7
370
    30
100
AcDbCircle
 10
5.6640528222
 20
5.6995413388
 30
0.0
 40
0.0149999999999997
100
AcDbArc
 50
90.0
 51
180.0
  0
LINE
  5
10A
330
1F
100
AcDbEntity
  8
0
  6
Continuous
 62
     7
370
    30
100
AcDbLine
 10
5.774052813
 20
5.7145413384
 30
0.0
 11
5.6640528188
 21
5.7145413384
 31
0.0
  0
LINE
  5
10B
330
1F
100
AcDbEntity
  8
0
  6
Continuous
 62
     7
370
    30
100
AcDbLine
 10
5.7240528173
 20
5.6645413427
 30
0.0
 11
5.774052813
 21
5.7145413384
 31
0.0
  0
LINE
  5
10C
330
1F
100
AcDbEntity
  8
0
  6
Continuous
 62
     7
370
    30
100
AcDbLine
 10
5.7240528173
 20
5.4655413399
 30
0.0
 11
5.7240528173
 21
5.6645413427
 31
0.0
  0
LINE
  5
10D
330
1F
100
AcDbEntity
  8
0
  6
Continuous
 62
     7
370
    30
100
AcDbLine
 10
5.7570528211
 20
5.4325413361
 30
0.0
 11
5.7240528173
 21
5.4655413399
 31
0.0
  0
LINE
  5
10E
330
1F
100
AcDbEntity
  8
0
  6
Continuous
 62
     7
370
    30
100
AcDbLine
 10
5.7570528211
 20
5.1045413319
 30
0.0
 11
5.7570528211
 21
5.4325413361
 31
0.0
  0
ARC
  5
10F
330
1F
100
AcDbEntity
  8
0
  6
Continuous
 62
     7
370
    30
100
AcDbCircle
 10
5.7420528222
 20
5.1045413388
 30
0.0
 40
0.0149999999999997
100
AcDbArc
 50
270.0
 51
0.0
  0
LINE
  5
110
330
1F
100
AcDbEntity
  8
0
  6
Continuous
 62
     7
370
    30
100
AcDbLine
 10
5.6800528306
 20
5.0895413552
 30
0.0
 11
5.742052826
 21
5.0895413552
 31
0.0
  0
ARC
  5
111
330
1F
100
AcDbEntity
  8
0
  6
Continuous
 62
     7
370
    30
100
AcDbCircle
 10
5.6800528222
 20
5.1045413388
 30
0.0
 40
0.0150000000000006
100
AcDbArc
 50
180.0
 51
270.0
  0
LINE
  5
112
330
1F
100
AcDbEntity
  8
0
  6
Continuous
 62
     7
370
    30
100
AcDbLine
 10
5.6650528172
 20
5.4325413361
 30
0.0
 11
5.6650528172
 21
5.1045413319
 31
0.0
  0
LINE
  5
113
330
1F
100
AcDbEntity
  8
0
  6
Continuous
 62
     7
370
    30
100
AcDbLine
 10
5.6250528243
 20
5.4325413361
 30
0.0
 11
5.6650528172
 21
5.4325413361
 31
0.0
  0
LINE
  5
114
330
1F
100
AcDbEntity
  8
0
  6
Continuous
 62
     7
370
    30
100
AcDbLine
 10
5.6250528243
 20
5.463541343
 30
0.0
 11
5.6250528243
 21
5.4325413361
 31
0.0
  0
LINE
  5
115
330
1F
100
AcDbEntity
  8
0
  6
Continuous
 62
     7
370
    30
100
AcDbLine
 10
5.3990528222
 20
5.6995413434
 30
0.0
 11
5.3990528222
 21
5.5371891497
 31
0.0
  0
ARC
  5
116
330
1F
100
AcDbEntity
  8
0
  6
Continuous
 62
     7
370
    30
100
AcDbCircle
 10
5.4140528222
 20
5.6995413388
 30
0.0
 40
0.0150000000000006
100
AcDbArc
 50
90.0
 51
180.0
  0
LINE
  5
117
330
1F
100
AcDbEntity
  8
0
  6
Continuous
 62
     7
370
    30
100
AcDbLine
 10
5.5240528206
 20
5.7145413384
 30
0.0
 11
5.4140528218
 21
5.7145413384
 31
0.0
  0
LINE
  5
118
330
1F
100
AcDbEntity
  8
0
  6
Continuous
 62
     7
370
    30
100
AcDbLine
 10
5.4740528226
 20
5.6645413427
 30
0.0
 11
5.5240528206
 21
5.7145413384
 31
0.0
  0
LINE
  5
119
330
1F
100
AcDbEntity
  8
0
  6
Continuous
 62
     7
370
    30
100
AcDbLine
 10
5.4740528226
 20
5.4655413399
 30
0.0
 11
5.4740528226
 21
5.6645413427
 31
0.0
  0
LINE
  5
11A
330
1F
100
AcDbEntity
  8
0
  6
Continuous
 62
     7
370
    30
100
AcDbLine
 10
5.5070528241
 20
5.4325413361
 30
0.0
 11
5.4740528226
 21
5.4655413399
 31
0.0
  0
LINE
  5
11B
330
1F
100
AcDbEntity
  8
0
  6
Continuous
 62
     7
370
    30
100
AcDbLine
 10
5.5070528241
 20
5.1045413319
 30
0.0
 11
5.5070528241
 21
5.4325413361
 31
0.0
  0
ARC
  5
11C
330
1F
100
AcDbEntity
  8
0
  6
Continuous
 62
     7
370
    30
100
AcDbCircle
 10
5.4920528222
 20
5.1045413388
 30
0.0
 40
0.0149999999999997
100
AcDbArc
 50
270.0
 51
0.0
  0
LINE
  5
11D
330
1F
100
AcDbEntity
  8
0
  6
Continuous
 62
     7
370
    30
100
AcDbLine
 10
5.4300528222
 20
5.0895413552
 30
0.0
 11
5.4920528222
 21
5.0895413552
 31
0.0
  0
ARC
  5
11E
330
1F
100
AcDbEntity
  8
0
  6
Continuous
 62
     7
370
    30
100
AcDbCircle
 10
5.4300528222
 20
5.1045413388
 30
0.0
 40
0.0150000000000006
100
AcDbArc
 50
180.0
 51
270.0
  0
LINE
  5
11F
330
1F
100
AcDbEntity
  8
0
  6
Continuous
 62
     7
370
    30
100
AcDbLine
 10
5.4150528202
 20
5.4325413361
 30
0.0
 11
5.4150528202
 21
5.1045413319
 31
0.0
  0
LINE
  5
120
330
1F
100
AcDbEntity
  8
0
  6
Continuous
 62
     7
370
    30
100
AcDbLine
 10
5.3750528182
 20
5.4325413361
 30
0.0
 11
5.4150528202
 21
5.4325413361
 31
0.0
  0
LINE
  5
121
330
1F
100
AcDbEntity
  8
0
  6
Continuous
 62
     7
370
    30
100
AcDbLine
 10
5.3750528182
 20
5.463541343
 30
0.0
 11
5.3750528182
 21
5.4325413361
 31
0.0
  0
ARC
  5
122
330
1F
100
AcDbEntity
  8
0
  6
Continuous
 62
     7
370
    30
100
AcDbCircle
 10
5.2740528222
 20
5.5371891494
 30
0.0
 40
0.1250000000000001
100
AcDbArc
 50
323.9009837413
 51
0.0
  0
LINE
  5
123
330
1F
100
AcDbEntity
  8
0
  6
Continuous
 62
     7
370
    30
100
AcDbLine
 10
5.1490528298
 20
5.6995413434
 30
0.0
 11
5.1490528298
 21
5.5371891497
 31
0.0
  0
ARC
  5
124
330
1F
100
AcDbEntity
  8
0
  6
Continuous
 62
     7
370
    30
100
AcDbCircle
 10
5.1640528222
 20
5.6995413388
 30
0.0
 40
0.0150000000000006
100
AcDbArc
 50
90.0
 51
180.0
  0
LINE
  5
125
330
1F
100
AcDbEntity
  8
0
  6
Continuous
 62
     7
370
    30
100
AcDbLine
 10
5.2740528191
 20
5.7145413384
 30
0.0
 11
5.1640528248
 21
5.7145413384
 31
0.0
  0
LINE
  5
126
330
1F
100
AcDbEntity
  8
0
  6
Continuous
 62
     7
370
    30
100
AcDbLine
 10
5.2240528234
 20
5.6645413427
 30
0.0
 11
5.2740528191
 21
5.7145413384
 31
0.0
  0
LINE
  5
127
330
1F
100
AcDbEntity
  8
0
  6
Continuous
 62
     7
370
    30
100
AcDbLine
 10
5.2240528234
 20
5.4655413399
 30
0.0
 11
5.2240528234
 21
5.6645413427
 31
0.0
  0
LINE
  5
128
330
1F
100
AcDbEntity
  8
0
  6
Continuous
 62
     7
370
    30
100
AcDbLine
 10
5.2570528271
 20
5.4325413361
 30
0.0
 11
5.2240528234
 21
5.4655413399
 31
0.0
  0
LINE
  5
129
330
1F
100
AcDbEntity
  8
0
  6
Continuous
 62
     7
370
    30
100
AcDbLine
 10
5.2570528271
 20
5.1045413319
 30
0.0
 11
5.2570528271
 21
5.4325413361
 31
0.0
  0
ARC
  5
12A
330
1F
100
AcDbEntity
  8
0
  6
Continuous
 62
     7
370
    30
100
AcDbCircle
 10
5.2420528222
 20
5.1045413388
 30
0.0
 40
0.0149999999999997
100
AcDbArc
 50
270.0
 51
0.0
  0
LINE
  5
12B
330
1F
100
AcDbEntity
  8
0
  6
Continuous
 62
     7
370
    30
100
AcDbLine
 10
5.1800528183
 20
5.0895413552
 30
0.0
 11
5.2420528138
 21
5.0895413552
 31
0.0
  0
ARC
  5
12C
330
1F
100
AcDbEntity
  8
0
  6
Continuous
 62
     7
370
    30
100
AcDbCircle
 10
5.1800528222
 20
5.1045413388
 30
0.0
 40
0.0150000000000006
100
AcDbArc
 50
180.0
 51
270.0
  0
LINE
  5
12D
330
1F
100
AcDbEntity
  8
0
  6
Continuous
 62
     7
370
    30
100
AcDbLine
 10
5.1650528233
 20
5.4325413361
 30
0.0
 11
5.1650528233
 21
5.1045413319
 31
0.0
  0
LINE
  5
12E
330
1F
100
AcDbEntity
  8
0
  6
Continuous
 62
     7
370
    30
100
AcDbLine
 10
5.1250528303
 20
5.4325413361
 30
0.0
 11
5.1650528233
 21
5.4325413361
 31
0.0
  0
LINE
  5
12F
330
1F
100
AcDbEntity
  8
0
  6
Continuous
 62
     7
370
    30
100
AcDbLine
 10
5.1250528303
 20
5.463541343
 30
0.0
 11
5.1250528303
 21
5.4325413361
 31
0.0
  0
ARC
  5
130
330
1F
100
AcDbEntity
  8
0
  6
Continuous
 62
     7
370
    30
100
AcDbCircle
 10
5.0240528222
 20
5.5371891494
 30
0.0
 40
0.1250000000000008
100
AcDbArc
 50
323.9009837413
 51
0.0
  0
LINE
  5
131
330
1F
100
AcDbEntity
  8
0
  6
Continuous
 62
     7
370
    30
100
AcDbLine
 10
4.8990528145
 20
5.6995413434
 30
0.0
 11
4.8990528145
 21
5.5371891497
 31
0.0
  0
ARC
  5
132
330
1F
100
AcDbEntity
  8
0
  6
Continuous
 62
     7
370
    30
100
AcDbCircle
 10
4.9140528222
 20
5.6995413388
 30
0.0
 40
0.0150000000000006
100
AcDbArc
 50
90.0
 51
180.0
  0
LINE
  5
133
330
1F
100
AcDbEntity
  8
0
  6
Continuous
 62
     7
370
    30
100
AcDbLine
 10
5.0240528404
 20
5.7145413384
 30
0.0
 11
4.9140528278
 21
5.7145413384
 31
0.0
  0
LINE
  5
134
330
1F
100
AcDbEntity
  8
0
  6
Continuous
 62
     7
370
    30
100
AcDbLine
 10
4.974052808
 20
5.6645413427
 30
0.0
 11
5.0240528404
 21
5.7145413384
 31
0.0
  0
LINE
  5
135
330
1F
100
AcDbEntity
  8
0
  6
Continuous
 62
     7
370
    30
100
AcDbLine
 10
4.974052808
 20
5.4655413399
 30
0.0
 11
4.974052808
 21
5.6645413427
 31
0.0
  0
LINE
  5
136
330
1F
100
AcDbEntity
  8
0
  6
Continuous
 62
     7
370
    30
100
AcDbLine
 10
5.0070528302
 20
5.4325413361
 30
0.0
 11
4.974052808
 21
5.4655413399
 31
0.0
  0
LINE
  5
137
330
1F
100
AcDbEntity
  8
0
  6
Continuous
 62
     7
370
    30
100
AcDbLine
 10
5.0070528302
 20
5.1045413319
 30
0.0
 11
5.0070528302
 21
5.4325413361
 31
0.0
  0
ARC
  5
138
330
1F
100
AcDbEntity
  8
0
  6
Continuous
 62
     7
370
    30
100
AcDbCircle
 10
4.9920528222
 20
5.1045413388
 30
0.0
 40
0.0149999999999997
100
AcDbArc
 50
270.0
 51
0.0
  0
LINE
  5
139
330
1F
100
AcDbEntity
  8
0
  6
Continuous
 62
     7
370
    30
100
AcDbLine
 10
4.9300528397
 20
5.0895413552
 30
0.0
 11
4.9920528168
 21
5.0895413552
 31
0.0
  0
ARC
  5
13A
330
1F
100
AcDbEntity
  8
0
  6
Continuous
 62
     7
370
    30
100
AcDbCircle
 10
4.9300528222
 20
5.1045413388
 30
0.0
 40
0.0150000000000006
100
AcDbArc
 50
180.0
 51
270.0
  0
LINE
  5
13B
330
1F
100
AcDbEntity
  8
0
  6
Continuous
 62
     7
370
    30
100
AcDbLine
 10
4.9150528263
 20
5.4325413361
 30
0.0
 11
4.9150528263
 21
5.1045413319
 31
0.0
  0
LINE
  5
13C
330
1F
100
AcDbEntity
  8
0
  6
Continuous
 62
     7
370
    30
100
AcDbLine
 10
4.875052815
 20
5.4325413361
 30
0.0
 11
4.9150528263
 21
5.4325413361
 31
0.0
  0
LINE
  5
13D
330
1F
100
AcDbEntity
  8
0
  6
Continuous
 62
     7
370
    30
100
AcDbLine
 10
4.875052815
 20
5.463541343
 30
0.0
 11
4.875052815
 21
5.4325413361
 31
0.0
  0
ARC
  5
13E
330
1F
100
AcDbEntity
  8
0
  6
Continuous
 62
     7
370
    30
100
AcDbCircle
 10
4.7740528222
 20
5.5371891494
 30
0.0
 40
0.1250000000000008
100
AcDbArc
 50
323.9009837413
 51
0.0
  0
LINE
  5
13F
330
1F
100
AcDbEntity
  8
0
  6
Continuous
 62
     7
370
    30
100
AcDbLine
 10
4.6490528358
 20
5.6995413434
 30
0.0
 11
4.6490528358
 21
5.5371891497
 31
0.0
  0
ARC
  5
140
330
1F
100
AcDbEntity
  8
0
  6
Continuous
 62
     7
370
    30
100
AcDbCircle
 10
4.6640528222
 20
5.6995413388
 30
0.0
 40
0.0149999999999997
100
AcDbArc
 50
90.0
 51
180.0
  0
LINE
  5
141
330
1F
100
AcDbEntity
  8
0
  6
Continuous
 62
     7
370
    30
100
AcDbLine
 10
4.7740528251
 20
5.7145413384
 30
0.0
 11
4.6640528492
 21
5.7145413384
 31
0.0
  0
LINE
  5
142
330
1F
100
AcDbEntity
  8
0
  6
Continuous
 62
     7
370
    30
100
AcDbLine
 10
4.7240528294
 20
5.6645413427
 30
0.0
 11
4.7740528251
 21
5.7145413384
 31
0.0
  0
LINE
  5
143
330
1F
100
AcDbEntity
  8
0
  6
Continuous
 62
     7
370
    30
100
AcDbLine
 10
4.7240528294
 20
5.4655413399
 30
0.0
 11
4.7240528294
 21
5.6645413427
 31
0.0
  0
LINE
  5
144
330
1F
100
AcDbEntity
  8
0
  6
Continuous
 62
     7
370
    30
100
AcDbLine
 10
4.7570528148
 20
5.4325413361
 30
0.0
 11
4.7240528294
 21
5.4655413399
 31
0.0
  0
LINE
  5
145
330
1F
100
AcDbEntity
  8
0
  6
Continuous
 62
     7
370
    30
100
AcDbLine
 10
4.7570528148
 20
5.1045413319
 30
0.0
 11
4.7570528148
 21
5.4325413361
 31
0.0
  0
ARC
  5
146
330
1F
100
AcDbEntity
  8
0
  6
Continuous
 62
     7
370
    30
100
AcDbCircle
 10
4.7420528222
 20
5.1045413388
 30
0.0
 40
0.0150000000000006
100
AcDbArc
 50
270.0
 51
0.0
  0
LINE
  5
147
330
1F
100
AcDbEntity
  8
0
  6
Continuous
 62
     7
370
    30
100
AcDbLine
 10
4.6800528244
 20
5.0895413552
 30
0.0
 11
4.7420528015
 21
5.0895413552
 31
0.0
  0
ARC
  5
148
330
1F
100
AcDbEntity
  8
0
  6
Continuous
 62
     7
370
    30
100
AcDbCircle
 10
4.6800528222
 20
5.1045413388
 30
0.0
 40
0.0150000000000006
100
AcDbArc
 50
180.0
 51
270.0
  0
LINE
  5
149
330
1F
100
AcDbEntity
  8
0
  6
Continuous
 62
     7
370
    30
100
AcDbLine
 10
4.665052811
 20
5.4325413361
 30
0.0
 11
4.665052811
 21
5.1045413319
 31
0.0
  0
LINE
  5
14A
330
1F
100
AcDbEntity
  8
0
  6
Continuous
 62
     7
370
    30
100
AcDbLine
 10
4.6250527997
 20
5.4325413361
 30
0.0
 11
4.665052811
 21
5.4325413361
 31
0.0
  0
LINE
  5
14B
330
1F
100
AcDbEntity
  8
0
  6
Continuous
 62
     7
370
    30
100
AcDbLine
 10
4.6250527997
 20
5.463541343
 30
0.0
 11
4.6250527997
 21
5.4325413361
 31
0.0
  0
ARC
  5
14C
330
1F
100
AcDbEntity
  8
0
  6
Continuous
 62
     7
370
    30
100
AcDbCircle
 10
4.5240528222
 20
5.5371891494
 30
0.0
 40
0.1250000000000008
100
AcDbArc
 50
323.9009837413
 51
0.0
  0
LINE
  5
14D
330
1F
100
AcDbEntity
  8
0
  6
Continuous
 62
     7
370
    30
100
AcDbLine
 10
4.3990528572
 20
5.6995413434
 30
0.0
 11
4.3990528572
 21
5.5371891497
 31
0.0
  0
ARC
  5
14E
330
1F
100
AcDbEntity
  8
0
  6
Continuous
 62
     7
370
    30
100
AcDbCircle
 10
4.4140528222
 20
5.6995413388
 30
0.0
 40
0.0149999999999997
100
AcDbArc
 50
90.0
 51
180.0
  0
LINE
  5
14F
330
1F
100
AcDbEntity
  8
0
  6
Continuous
 62
     7
370
    30
100
AcDbLine
 10
4.5240528465
 20
5.7145413384
 30
0.0
 11
4.4140527972
 21
5.7145413384
 31
0.0
  0
LINE
  5
150
330
1F
100
AcDbEntity
  8
0
  6
Continuous
 62
     7
370
    30
100
AcDbLine
 10
4.4740528508
 20
5.6645413427
 30
0.0
 11
4.5240528465
 21
5.7145413384
 31
0.0
  0
LINE
  5
151
330
1F
100
AcDbEntity
  8
0
  6
Continuous
 62
     7
370
    30
100
AcDbLine
 10
4.4740528508
 20
5.4655413399
 30
0.0
 11
4.4740528508
 21
5.6645413427
 31
0.0
  0
LINE
  5
152
330
1F
100
AcDbEntity
  8
0
  6
Continuous
 62
     7
370
    30
100
AcDbLine
 10
4.5070528362
 20
5.4325413361
 30
0.0
 11
4.4740528508
 21
5.4655413399
 31
0.0
  0
LINE
  5
153
330
1F
100
AcDbEntity
  8
0
  6
Continuous
 62
     7
370
    30
100
AcDbLine
 10
4.5070528362
 20
5.1045413319
 30
0.0
 11
4.5070528362
 21
5.4325413361
 31
0.0
  0
ARC
  5
154
330
1F
100
AcDbEntity
  8
0
  6
Continuous
 62
     7
370
    30
100
AcDbCircle
 10
4.4920528222
 20
5.1045413388
 30
0.0
 40
0.0150000000000006
100
AcDbArc
 50
270.0
 51
0.0
  0
LINE
  5
155
330
1F
100
AcDbEntity
  8
0
  6
Continuous
 62
     7
370
    30
100
AcDbLine
 10
4.4300528457
 20
5.0895413552
 30
0.0
 11
4.4920528228
 21
5.0895413552
 31
0.0
  0
ARC
  5
156
330
1F
100
AcDbEntity
  8
0
  6
Continuous
 62
     7
370
    30
100
AcDbCircle
 10
4.4300528222
 20
5.1045413388
 30
0.0
 40
0.0150000000000006
100
AcDbArc
 50
180.0
 51
270.0
  0
LINE
  5
157
330
1F
100
AcDbEntity
  8
0
  6
Continuous
 62
     7
370
    30
100
AcDbLine
 10
4.4150528323
 20
5.4325413361
 30
0.0
 11
4.4150528323
 21
5.1045413319
 31
0.0
  0
LINE
  5
158
330
1F
100
AcDbEntity
  8
0
  6
Continuous
 62
     7
370
    30
100
AcDbLine
 10
4.3750528211
 20
5.4325413361
 30
0.0
 11
4.4150528323
 21
5.4325413361
 31
0.0
  0
LINE
  5
159
330
1F
100
AcDbEntity
  8
0
  6
Continuous
 62
     7
370
    30
100
AcDbLine
 10
4.3750528211
 20
5.463541343
 30
0.0
 11
4.3750528211
 21
5.4325413361
 31
0.0
  0
ARC
  5
15A
330
1F
100
AcDbEntity
  8
0
  6
Continuous
 62
     7
370
    30
100
AcDbCircle
 10
4.2740528222
 20
5.5371891494
 30
0.0
 40
0.1250000000000009
100
AcDbArc
 50
323.9009837413
 51
0.0
  0
LINE
  5
15B
330
1F
100
AcDbEntity
  8
0
  6
Continuous
 62
     7
370
    30
100
AcDbLine
 10
4.1490528052
 20
5.6995413434
 30
0.0
 11
4.1490528052
 21
5.5371891497
 31
0.0
  0
ARC
  5
15C
330
1F
100
AcDbEntity
  8
0
  6
Continuous
 62
     7
370
    30
100
AcDbCircle
 10
4.1640528222
 20
5.6995413388
 30
0.0
 40
0.0149999999999997
100
AcDbArc
 50
90.0
 51
180.0
  0
LINE
  5
15D
330
1F
100
AcDbEntity
  8
0
  6
Continuous
 62
     7
370
    30
100
AcDbLine
 10
4.2740527945
 20
5.7145413384
 30
0.0
 11
4.1640528186
 21
5.7145413384
 31
0.0
  0
LINE
  5
15E
330
1F
100
AcDbEntity
  8
0
  6
Continuous
 62
     7
370
    30
100
AcDbLine
 10
4.2240528721
 20
5.6645413427
 30
0.0
 11
4.2740527945
 21
5.7145413384
 31
0.0
  0
LINE
  5
15F
330
1F
100
AcDbEntity
  8
0
  6
Continuous
 62
     7
370
    30
100
AcDbLine
 10
4.2240528721
 20
5.4655413399
 30
0.0
 11
4.2240528721
 21
5.6645413427
 31
0.0
  0
LINE
  5
160
330
1F
100
AcDbEntity
  8
0
  6
Continuous
 62
     7
370
    30
100
AcDbLine
 10
4.2570528576
 20
5.4325413361
 30
0.0
 11
4.2240528721
 21
5.4655413399
 31
0.0
  0
LINE
  5
161
330
1F
100
AcDbEntity
  8
0
  6
Continuous
 62
     7
370
    30
100
AcDbLine
 10
4.2570528576
 20
5.1045413319
 30
0.0
 11
4.2570528576
 21
5.4325413361
 31
0.0
  0
ARC
  5
162
330
1F
100
AcDbEntity
  8
0
  6
Continuous
 62
     7
370
    30
100
AcDbCircle
 10
4.2420528222
 20
5.1045413388
 30
0.0
 40
0.0150000000000006
100
AcDbArc
 50
270.0
 51
0.0
  0
LINE
  5
163
330
1F
100
AcDbEntity
  8
0
  6
Continuous
 62
     7
370
    30
100
AcDbLine
 10
4.1800527937
 20
5.0895413552
 30
0.0
 11
4.2420528442
 21
5.0895413552
 31
0.0
  0
ARC
  5
164
330
1F
100
AcDbEntity
  8
0
  6
Continuous
 62
     7
370
    30
100
AcDbCircle
 10
4.1800528222
 20
5.1045413388
 30
0.0
 40
0.0150000000000006
100
AcDbArc
 50
180.0
 51
270.0
  0
LINE
  5
165
330
1F
100
AcDbEntity
  8
0
  6
Continuous
 62
     7
370
    30
100
AcDbLine
 10
4.1650527803
 20
5.4325413361
 30
0.0
 11
4.1650527803
 21
5.1045413319
 31
0.0
  0
LINE
  5
166
330
1F
100
AcDbEntity
  8
0
  6
Continuous
 62
     7
370
    30
100
AcDbLine
 10
4.1250528424
 20
5.4325413361
 30
0.0
 11
4.1650527803
 21
5.4325413361
 31
0.0
  0
LINE
  5
167
330
1F
100
AcDbEntity
  8
0
  6
Continuous
 62
     7
370
    30
100
AcDbLine
 10
4.1250528424
 20
5.463541343
 30
0.0
 11
4.1250528424
 21
5.4325413361
 31
0.0
  0
ARC
  5
168
330
1F
100
AcDbEntity
  8
0
  6
Continuous
 62
     7
370
    30
100
AcDbCircle
 10
4.0240528222
 20
5.5371891494
 30
0.0
 40
0.1250000000000001
100
AcDbArc
 50
323.9009837413
 51
0.0
  0
LINE
  5
169
330
1F
100
AcDbEntity
  8
0
  6
Continuous
 62
     7
370
    30
100
AcDbLine
 10
3.8990528265
 20
5.6995413434
 30
0.0
 11
3.8990528265
 21
5.5371891497
 31
0.0
  0
ARC
  5
16A
330
1F
100
AcDbEntity
  8
0
  6
Continuous
 62
     7
370
    30
100
AcDbCircle
 10
3.9140528222
 20
5.6995413388
 30
0.0
 40
0.0150000000000006
100
AcDbArc
 50
90.0
 51
180.0
  0
LINE
  5
16B
330
1F
100
AcDbEntity
  8
0
  6
Continuous
 62
     7
370
    30
100
AcDbLine
 10
4.0240528892
 20
5.7145413384
 30
0.0
 11
3.9140528399
 21
5.7145413384
 31
0.0
  0
LINE
  5
16C
330
1F
100
AcDbEntity
  8
0
  6
Continuous
 62
     7
370
    30
100
AcDbLine
 10
3.9740528935
 20
5.6645413427
 30
0.0
 11
4.0240528892
 21
5.7145413384
 31
0.0
  0
LINE
  5
16D
330
1F
100
AcDbEntity
  8
0
  6
Continuous
 62
     7
370
    30
100
AcDbLine
 10
3.9740528935
 20
5.4655413399
 30
0.0
 11
3.9740528935
 21
5.6645413427
 31
0.0
  0
LINE
  5
16E
330
1F
100
AcDbEntity
  8
0
  6
Continuous
 62
     7
370
    30
100
AcDbLine
 10
4.0070528056
 20
5.4325413361
 30
0.0
 11
3.9740528935
 21
5.4655413399
 31
0.0
  0
LINE
  5
16F
330
1F
100
AcDbEntity
  8
0
  6
Continuous
 62
     7
370
    30
100
AcDbLine
 10
4.0070528056
 20
5.1045413319
 30
0.0
 11
4.0070528056
 21
5.4325413361
 31
0.0
  0
ARC
  5
170
330
1F
100
AcDbEntity
  8
0
  6
Continuous
 62
     7
370
    30
100
AcDbCircle
 10
3.9920528222
 20
5.1045413388
 30
0.0
 40
0.0149999999999997
100
AcDbArc
 50
270.0
 51
0.0
  0
LINE
  5
171
330
1F
100
AcDbEntity
  8
0
  6
Continuous
 62
     7
370
    30
100
AcDbLine
 10
3.9300528151
 20
5.0895413552
 30
0.0
 11
3.9920527922
 21
5.0895413552
 31
0.0
  0
ARC
  5
172
330
1F
100
AcDbEntity
  8
0
  6
Continuous
 62
     7
370
    30
100
AcDbCircle
 10
3.9300528222
 20
5.1045413388
 30
0.0
 40
0.0150000000000006
100
AcDbArc
 50
180.0
 51
270.0
  0
LINE
  5
173
330
1F
100
AcDbEntity
  8
0
  6
Continuous
 62
     7
370
    30
100
AcDbLine
 10
3.9150528017
 20
5.4325413361
 30
0.0
 11
3.9150528017
 21
5.1045413319
 31
0.0
  0
LINE
  5
174
330
1F
100
AcDbEntity
  8
0
  6
Continuous
 62
     7
370
    30
100
AcDbLine
 10
3.8750528638
 20
5.4325413361
 30
0.0
 11
3.9150528017
 21
5.4325413361
 31
0.0
  0
LINE
  5
175
330
1F
100
AcDbEntity
  8
0
  6
Continuous
 62
     7
370
    30
100
AcDbLine
 10
3.8750528638
 20
5.463541343
 30
0.0
 11
3.8750528638
 21
5.4325413361
 31
0.0
  0
ARC
  5
176
330
1F
100
AcDbEntity
  8
0
  6
Continuous
 62
     7
370
    30
100
AcDbCircle
 10
3.7740528222
 20
5.5371891494
 30
0.0
 40
0.1250000000000005
100
AcDbArc
 50
323.9009837413
 51
0.0
  0
LINE
  5
177
330
1F
100
AcDbEntity
  8
0
  6
Continuous
 62
     7
370
    30
100
AcDbLine
 10
3.6490528479
 20
5.6995413434
 30
0.0
 11
3.6490528479
 21
5.5371891497
 31
0.0
  0
ARC
  5
178
330
1F
100
AcDbEntity
  8
0
  6
Continuous
 62
     7
370
    30
100
AcDbCircle
 10
3.6640528222
 20
5.6995413388
 30
0.0
 40
0.0150000000000001
100
AcDbArc
 50
90.0
 51
180.0
  0
LINE
  5
179
330
1F
100
AcDbEntity
  8
0
  6
Continuous
 62
     7
370
    30
100
AcDbLine
 10
3.7740527639
 20
5.7145413384
 30
0.0
 11
3.6640528613
 21
5.7145413384
 31
0.0
  0
LINE
  5
17A
330
1F
100
AcDbEntity
  8
0
  6
Continuous
 62
     7
370
    30
100
AcDbLine
 10
3.7240527682
 20
5.6645413427
 30
0.0
 11
3.7740527639
 21
5.7145413384
 31
0.0
  0
LINE
  5
17B
330
1F
100
AcDbEntity
  8
0
  6
Continuous
 62
     7
370
    30
100
AcDbLine
 10
3.7240527682
 20
5.4655413399
 30
0.0
 11
3.7240527682
 21
5.6645413427
 31
0.0
  0
LINE
  5
17C
330
1F
100
AcDbEntity
  8
0
  6
Continuous
 62
     7
370
    30
100
AcDbLine
 10
3.7570528269
 20
5.4325413361
 30
0.0
 11
3.7240527682
 21
5.4655413399
 31
0.0
  0
LINE
  5
17D
330
1F
100
AcDbEntity
  8
0
  6
Continuous
 62
     7
370
    30
100
AcDbLine
 10
3.7570528269
 20
5.1045413319
 30
0.0
 11
3.7570528269
 21
5.4325413361
 31
0.0
  0
ARC
  5
17E
330
1F
100
AcDbEntity
  8
0
  6
Continuous
 62
     7
370
    30
100
AcDbCircle
 10
3.7420528222
 20
5.1045413388
 30
0.0
 40
0.0149999999999997
100
AcDbArc
 50
270.0
 51
0.0
  0
LINE
  5
17F
330
1F
100
AcDbEntity
  8
0
  6
Continuous
 62
     7
370
    30
100
AcDbLine
 10
3.6800528364
 20
5.0895413552
 30
0.0
 11
3.7420528135
 21
5.0895413552
 31
0.0
  0
ARC
  5
180
330
1F
100
AcDbEntity
  8
0
  6
Continuous
 62
     7
370
    30
100
AcDbCircle
 10
3.6800528222
 20
5.1045413388
 30
0.0
 40
0.0150000000000006
100
AcDbArc
 50
180.0
 51
270.0
  0
LINE
  5
181
330
1F
100
AcDbEntity
  8
0
  6
Continuous
 62
     7
370
    30
100
AcDbLine
 10
3.6650528231
 20
5.4325413361
 30
0.0
 11
3.6650528231
 21
5.1045413319
 31
0.0
  0
LINE
  5
182
330
1F
100
AcDbEntity
  8
0
  6
Continuous
 62
     7
370
    30
100
AcDbLine
 10
3.6250528851
 20
5.4325413361
 30
0.0
 11
3.6650528231
 21
5.4325413361
 31
0.0
  0
LINE
  5
183
330
1F
100
AcDbEntity
  8
0
  6
Continuous
 62
     7
370
    30
100
AcDbLine
 10
3.6250528851
 20
5.463541343
 30
0.0
 11
3.6250528851
 21
5.4325413361
 31
0.0
  0
ARC
  5
184
330
1F
100
AcDbEntity
  8
0
  6
Continuous
 62
     7
370
    30
100
AcDbCircle
 10
3.5240528222
 20
5.5371891494
 30
0.0
 40
0.1250000000000008
100
AcDbArc
 50
323.9009837413
 51
0.0
  0
LINE
  5
185
330
1F
100
AcDbEntity
  8
0
  6
Continuous
 62
     7
370
    30
100
AcDbLine
 10
7.5391778555
 20
4.8392913494
 30
0.0
 11
3.3829277889
 21
4.8392913494
 31
0.0
  0
LINE
  5
186
330
1F
100
AcDbEntity
  8
0
  6
Continuous
 62
     7
370
    30
100
AcDbLine
 10
3.3829277889
 20
4.9632913403
 30
0.0
 11
3.3829277889
 21
4.8392913494
 31
0.0
  0
LINE
  5
187
330
1F
100
AcDbEntity
  8
0
  6
Continuous
 62
     7
370
    30
100
AcDbLine
 10
7.3861778363
 20
4.8749567507
 30
0.0
 11
7.3861778363
 21
5.0902913265
 31
0.0
  0
LINE
  5
188
330
1F
100
AcDbEntity
  8
0
  6
Continuous
 62
     7
370
    30
100
AcDbLine
 10
7.5391778555
 20
4.9632913403
 30
0.0
 11
7.3861778363
 21
4.8749567507
 31
0.0
  0
LINE
  5
189
330
1F
100
AcDbEntity
  8
0
  6
Continuous
 62
     7
370
    30
100
AcDbLine
 10
7.3861778363
 20
5.0902913265
 30
0.0
 11
7.2467365538
 21
5.0902913265
 31
0.0
  0
LINE
  5
18A
330
1F
100
AcDbEntity
  8
0
  6
Continuous
 62
     7
370
    30
100
AcDbLine
 10
7.1753690849
 20
5.0902913265
 30
0.0
 11
6.9967365752
 21
5.0902913265
 31
0.0
  0
LINE
  5
18B
330
1F
100
AcDbEntity
  8
0
  6
Continuous
 62
     7
370
    30
100
AcDbLine
 10
6.9253691063
 20
5.0902913265
 30
0.0
 11
6.7467365965
 21
5.0902913265
 31
0.0
  0
LINE
  5
18C
330
1F
100
AcDbEntity
  8
0
  6
Continuous
 62
     7
370
    30
100
AcDbLine
 10
6.6753690543
 20
5.0902913265
 30
0.0
 11
6.4967365445
 21
5.0902913265
 31
0.0
  0
LINE
  5
18D
330
1F
100
AcDbEntity
  8
0
  6
Continuous
 62
     7
370
    30
100
AcDbLine
 10
6.4253690756
 20
5.0902913265
 30
0.0
 11
6.2467365659
 21
5.0902913265
 31
0.0
  0
LINE
  5
18E
330
1F
100
AcDbEntity
  8
0
  6
Continuous
 62
     7
370
    30
100
AcDbLine
 10
6.175369097
 20
5.0902913265
 30
0.0
 11
5.9967365872
 21
5.0902913265
 31
0.0
  0
LINE
  5
18F
330
1F
100
AcDbEntity
  8
0
  6
Continuous
 62
     7
370
    30
100
AcDbLine
 10
5.9253690817
 20
5.0902913265
 30
0.0
 11
5.7467365719
 21
5.0902913265
 31
0.0
  0
LINE
  5
190
330
1F
100
AcDbEntity
  8
0
  6
Continuous
 62
     7
370
    30
100
AcDbLine
 10
5.6753690664
 20
5.0902913265
 30
0.0
 11
5.4967365704
 21
5.0902913265
 31
0.0
  0
LINE
  5
191
330
1F
100
AcDbEntity
  8
0
  6
Continuous
 62
     7
370
    30
100
AcDbLine
 10
5.425369074
 20
5.0902913265
 30
0.0
 11
5.246736578
 21
5.0902913265
 31
0.0
  0
LINE
  5
192
330
1F
100
AcDbEntity
  8
0
  6
Continuous
 62
     7
370
    30
100
AcDbLine
 10
5.1753690724
 20
5.0902913265
 30
0.0
 11
4.9967365627
 21
5.0902913265
 31
0.0
  0
LINE
  5
193
330
1F
100
AcDbEntity
  8
0
  6
Continuous
 62
     7
370
    30
100
AcDbLine
 10
4.9253690571
 20
5.0902913265
 30
0.0
 11
4.7467365474
 21
5.0902913265
 31
0.0
  0
LINE
  5
194
330
1F
100
AcDbEntity
  8
0
  6
Continuous
 62
     7
370
    30
100
AcDbLine
 10
4.6753690785
 20
5.0902913265
 30
0.0
 11
4.4967365687
 21
5.0902913265
 31
0.0
  0
LINE
  5
195
330
1F
100
AcDbEntity
  8
0
  6
Continuous
 62
     7
370
    30
100
AcDbLine
 10
4.4253690998
 20
5.0902913265
 30
0.0
 11
4.2467365901
 21
5.0902913265
 31
0.0
  0
LINE
  5
196
330
1F
100
AcDbEntity
  8
0
  6
Continuous
 62
     7
370
    30
100
AcDbLine
 10
4.1753690478
 20
5.0902913265
 30
0.0
 11
3.9967365381
 21
5.0902913265
 31
0.0
  0
LINE
  5
197
330
1F
100
AcDbEntity
  8
0
  6
Continuous
 62
     7
370
    30
100
AcDbLine
 10
3.9253690692
 20
5.0902913265
 30
0.0
 11
3.7467365594
 21
5.0902913265
 31
0.0
  0
LINE
  5
198
330
1F
100
AcDbEntity
  8
0
  6
Continuous
 62
     7
370
    30
100
AcDbLine
 10
3.6753690906
 20
5.0902913265
 30
0.0
 11
3.5359278081
 21
5.0902913265
 31
0.0
  0
LINE
  5
199
330
1F
100
AcDbEntity
  8
0
  6
Continuous
 62
     7
370
    30
100
AcDbLine
 10
3.5359278081
 20
5.0902913265
 30
0.0
 11
3.5359278081
 21
4.8749567507
 31
0.0
  0
LINE
  5
19A
330
1F
100
AcDbEntity
  8
0
  6
Continuous
 62
     7
370
    30
100
AcDbLine
 10
3.5359278081
 20
4.8749567507
 30
0.0
 11
3.3829277889
 21
4.9632913403
 31
0.0
  0
LINE
  5
19B
330
1F
100
AcDbEntity
  8
0
  6
Continuous
 62
     7
370
    30
100
AcDbLine
 10
7.5391778555
 20
4.8392913494
 30
0.0
 11
7.5391778555
 21
4.9632913403
 31
0.0
  0
LINE
  5
19C
330
1F
100
AcDbEntity
  8
0
  6
Continuous
 62
     7
370
    30
100
AcDbLine
 10
3.3829277889
 20
4.6832913715
 30
0.0
 11
3.3829277889
 21
4.8392913494
 31
0.0
  0
LINE
  5
19D
330
1F
100
AcDbEntity
  8
0
  6
Continuous
 62
     7
370
    30
100
AcDbLine
 10
7.5391778555
 20
4.8392913494
 30
0.0
 11
7.5391778555
 21
4.6832913715
 31
0.0
  0
LINE
  5
19E
330
1F
100
AcDbEntity
  8
0
  6
Continuous
 62
     7
370
    30
100
AcDbLine
 10
7.3861778363
 20
4.5582913089
 30
0.0
 11
7.3861778363
 21
4.6776259236
 31
0.0
  0
LINE
  5
19F
330
1F
100
AcDbEntity
  8
0
  6
Continuous
 62
     7
370
    30
100
AcDbLine
 10
3.3829277889
 20
4.6832913715
 30
0.0
 11
3.3829277889
 21
4.6081653194
 31
0.0
  0
LINE
  5
1A0
330
1F
100
AcDbEntity
  8
0
  6
Continuous
 62
     7
370
    30
100
AcDbLine
 10
7.3861778363
 20
4.5582913089
 30
0.0
 11
3.5359278081
 21
4.5582913089
 31
0.0
  0
LINE
  5
1A1
330
1F
100
AcDbEntity
  8
0
  6
Continuous
 62
     7
370
    30
100
AcDbLine
 10
7.3861778363
 20
4.6776259236
 30
0.0
 11
7.5064871131
 21
4.6081653194
 31
0.0
  0
LINE
  5
1A2
330
1F
100
AcDbEntity
  8
0
  6
Continuous
 62
     7
370
    30
100
AcDbLine
 10
3.5359278081
 20
4.6776259236
 30
0.0
 11
3.5359278081
 21
4.5582913089
 31
0.0
  0
LINE
  5
1A3
330
1F
100
AcDbEntity
  8
0
  6
Continuous
 62
     7
370
    30
100
AcDbLine
 10
7.5391778555
 20
4.6081653194
 30
0.0
 11
7.5391778555
 21
4.6832913715
 31
0.0
  0
LINE
  5
1A4
330
1F
100
AcDbEntity
  8
0
  6
Continuous
 62
     7
370
    30
100
AcDbLine
 10
7.5391778555
 20
4.6832913715
 30
0.0
 11
3.3829277889
 21
4.6832913715
 31
0.0
  0
LINE
  5
1A5
330
1F
100
AcDbEntity
  8
0
  6
Continuous
 62
     7
370
    30
100
AcDbLine
 10
3.4156185312
 20
4.6081653194
 30
0.0
 11
3.5359278081
 21
4.6776259236
 31
0.0
  0
LINE
  5
1A6
330
1F
100
AcDbEntity
  8
0
  6
Continuous
 62
     7
370
    30
100
AcDbLine
 10
7.5391778555
 20
5.0902913265
 30
0.0
 11
7.3861778363
 21
5.0902913265
 31
0.0
  0
LINE
  5
1A7
330
1F
100
AcDbEntity
  8
0
  6
Continuous
 62
     7
370
    30
100
AcDbLine
 10
3.5359278081
 20
5.0902913265
 30
0.0
 11
3.3829277889
 21
5.0902913265
 31
0.0
  0
LINE
  5
1A8
330
1F
100
AcDbEntity
  8
0
  6
Continuous
 62
     7
370
    30
100
AcDbLine
 10
3.3829277889
 20
5.0902913265
 30
0.0
 11
3.3829277889
 21
5.1522913403
 31
0.0
  0
LINE
  5
1A9
330
1F
100
AcDbEntity
  8
0
  6
Continuous
 62
     7
370
    30
100
AcDbLine
 10
3.5384203793
 20
5.1522913403
 30
0.0
 11
3.3829277889
 21
5.1522913403
 31
0.0
  0
LINE
  5
1AA
330
1F
100
AcDbEntity
  8
0
  6
Continuous
 62
     7
370
    30
100
AcDbLine
 10
3.5095527527
 20
5.202291336
 30
0.0
 11
3.5384203793
 21
5.1522913403
 31
0.0
  0
LINE
  5
1AB
330
1F
100
AcDbEntity
  8
0
  6
Continuous
 62
     7
370
    30
100
AcDbLine
 10
3.5095527527
 20
5.433291335
 30
0.0
 11
3.5095527527
 21
5.202291336
 31
0.0
  0
LINE
  5
1AC
330
1F
100
AcDbEntity
  8
0
  6
Continuous
 62
     7
370
    30
100
AcDbLine
 10
3.6250528851
 20
5.433291335
 30
0.0
 11
3.5095527527
 21
5.433291335
 31
0.0
  0
LINE
  5
1AD
330
1F
100
AcDbEntity
  8
0
  6
Continuous
 62
     7
370
    30
100
AcDbLine
 10
3.6625527719
 20
5.4325413361
 30
0.0
 11
3.6625527719
 21
5.202291336
 31
0.0
  0
LINE
  5
1AE
330
1F
100
AcDbEntity
  8
0
  6
Continuous
 62
     7
370
    30
100
AcDbLine
 10
3.6625527719
 20
5.202291336
 30
0.0
 11
3.6336852921
 21
5.1522913403
 31
0.0
  0
LINE
  5
1AF
330
1F
100
AcDbEntity
  8
0
  6
Continuous
 62
     7
370
    30
100
AcDbLine
 10
3.6336852921
 20
5.1522913403
 30
0.0
 11
3.6650528231
 21
5.1522913403
 31
0.0
  0
LINE
  5
1B0
330
1F
100
AcDbEntity
  8
0
  6
Continuous
 62
     7
370
    30
100
AcDbLine
 10
3.7570528269
 20
5.1522913403
 30
0.0
 11
3.7884203579
 21
5.1522913403
 31
0.0
  0
LINE
  5
1B1
330
1F
100
AcDbEntity
  8
0
  6
Continuous
 62
     7
370
    30
100
AcDbLine
 10
3.7884203579
 20
5.1522913403
 30
0.0
 11
3.7595528781
 21
5.202291336
 31
0.0
  0
LINE
  5
1B2
330
1F
100
AcDbEntity
  8
0
  6
Continuous
 62
     7
370
    30
100
AcDbLine
 10
3.7595528781
 20
5.202291336
 30
0.0
 11
3.7595528781
 21
5.433291335
 31
0.0
  0
LINE
  5
1B3
330
1F
100
AcDbEntity
  8
0
  6
Continuous
 62
     7
370
    30
100
AcDbLine
 10
3.9125527506
 20
5.4325413361
 30
0.0
 11
3.9125527506
 21
5.202291336
 31
0.0
  0
LINE
  5
1B4
330
1F
100
AcDbEntity
  8
0
  6
Continuous
 62
     7
370
    30
100
AcDbLine
 10
3.9125527506
 20
5.202291336
 30
0.0
 11
3.8836852707
 21
5.1522913403
 31
0.0
  0
LINE
  5
1B5
330
1F
100
AcDbEntity
  8
0
  6
Continuous
 62
     7
370
    30
100
AcDbLine
 10
3.8836852707
 20
5.1522913403
 30
0.0
 11
3.9150528017
 21
5.1522913403
 31
0.0
  0
LINE
  5
1B6
330
1F
100
AcDbEntity
  8
0
  6
Continuous
 62
     7
370
    30
100
AcDbLine
 10
4.0070528056
 20
5.1522913403
 30
0.0
 11
4.0384203366
 21
5.1522913403
 31
0.0
  0
LINE
  5
1B7
330
1F
100
AcDbEntity
  8
0
  6
Continuous
 62
     7
370
    30
100
AcDbLine
 10
4.0384203366
 20
5.1522913403
 30
0.0
 11
4.0095528567
 21
5.202291336
 31
0.0
  0
LINE
  5
1B8
330
1F
100
AcDbEntity
  8
0
  6
Continuous
 62
     7
370
    30
100
AcDbLine
 10
4.1625528759
 20
5.4325413361
 30
0.0
 11
4.1625528759
 21
5.202291336
 31
0.0
  0
LINE
  5
1B9
330
1F
100
AcDbEntity
  8
0
  6
Continuous
 62
     7
370
    30
100
AcDbLine
 10
4.1625528759
 20
5.202291336
 30
0.0
 11
4.1336852494
 21
5.1522913403
 31
0.0
  0
LINE
  5
1BA
330
1F
100
AcDbEntity
  8
0
  6
Continuous
 62
     7
370
    30
100
AcDbLine
 10
4.1336852494
 20
5.1522913403
 30
0.0
 11
4.1650527803
 21
5.1522913403
 31
0.0
  0
LINE
  5
1BB
330
1F
100
AcDbEntity
  8
0
  6
Continuous
 62
     7
370
    30
100
AcDbLine
 10
4.2570528576
 20
5.1522913403
 30
0.0
 11
4.2884203152
 21
5.1522913403
 31
0.0
  0
LINE
  5
1BC
330
1F
100
AcDbEntity
  8
0
  6
Continuous
 62
     7
370
    30
100
AcDbLine
 10
4.2884203152
 20
5.1522913403
 30
0.0
 11
4.2595528353
 21
5.202291336
 31
0.0
  0
LINE
  5
1BD
330
1F
100
AcDbEntity
  8
0
  6
Continuous
 62
     7
370
    30
100
AcDbLine
 10
4.2595528353
 20
5.202291336
 30
0.0
 11
4.2595528353
 21
5.433291335
 31
0.0
  0
LINE
  5
1BE
330
1F
100
AcDbEntity
  8
0
  6
Continuous
 62
     7
370
    30
100
AcDbLine
 10
4.4125528545
 20
5.4325413361
 30
0.0
 11
4.4125528545
 21
5.202291336
 31
0.0
  0
LINE
  5
1BF
330
1F
100
AcDbEntity
  8
0
  6
Continuous
 62
     7
370
    30
100
AcDbLine
 10
4.4125528545
 20
5.202291336
 30
0.0
 11
4.3836853014
 21
5.1522913403
 31
0.0
  0
LINE
  5
1C0
330
1F
100
AcDbEntity
  8
0
  6
Continuous
 62
     7
370
    30
100
AcDbLine
 10
4.3836853014
 20
5.1522913403
 30
0.0
 11
4.4150528323
 21
5.1522913403
 31
0.0
  0
LINE
  5
1C1
330
1F
100
AcDbEntity
  8
0
  6
Continuous
 62
     7
370
    30
100
AcDbLine
 10
4.5070528362
 20
5.1522913403
 30
0.0
 11
4.5384203672
 21
5.1522913403
 31
0.0
  0
LINE
  5
1C2
330
1F
100
AcDbEntity
  8
0
  6
Continuous
 62
     7
370
    30
100
AcDbLine
 10
4.5384203672
 20
5.1522913403
 30
0.0
 11
4.509552814
 21
5.202291336
 31
0.0
  0
LINE
  5
1C3
330
1F
100
AcDbEntity
  8
0
  6
Continuous
 62
     7
370
    30
100
AcDbLine
 10
4.509552814
 20
5.202291336
 30
0.0
 11
4.509552814
 21
5.433291335
 31
0.0
  0
LINE
  5
1C4
330
1F
100
AcDbEntity
  8
0
  6
Continuous
 62
     7
370
    30
100
AcDbLine
 10
4.6625528332
 20
5.4325413361
 30
0.0
 11
4.6625528332
 21
5.202291336
 31
0.0
  0
LINE
  5
1C5
330
1F
100
AcDbEntity
  8
0
  6
Continuous
 62
     7
370
    30
100
AcDbLine
 10
4.6625528332
 20
5.202291336
 30
0.0
 11
4.63368528
 21
5.1522913403
 31
0.0
  0
LINE
  5
1C6
330
1F
100
AcDbEntity
  8
0
  6
Continuous
 62
     7
370
    30
100
AcDbLine
 10
4.63368528
 20
5.1522913403
 30
0.0
 11
4.665052811
 21
5.1522913403
 31
0.0
  0
LINE
  5
1C7
330
1F
100
AcDbEntity
  8
0
  6
Continuous
 62
     7
370
    30
100
AcDbLine
 10
4.7570528148
 20
5.1522913403
 30
0.0
 11
4.7884203458
 21
5.1522913403
 31
0.0
  0
LINE
  5
1C8
330
1F
100
AcDbEntity
  8
0
  6
Continuous
 62
     7
370
    30
100
AcDbLine
 10
4.7884203458
 20
5.1522913403
 30
0.0
 11
4.7595527926
 21
5.202291336
 31
0.0
  0
LINE
  5
1C9
330
1F
100
AcDbEntity
  8
0
  6
Continuous
 62
     7
370
    30
100
AcDbLine
 10
4.875052815
 20
5.433291335
 30
0.0
 11
4.7595527926
 21
5.433291335
 31
0.0
  0
LINE
  5
1CA
330
1F
100
AcDbEntity
  8
0
  6
Continuous
 62
     7
370
    30
100
AcDbLine
 10
4.9125528118
 20
5.4325413361
 30
0.0
 11
4.9125528118
 21
5.202291336
 31
0.0
  0
LINE
  5
1CB
330
1F
100
AcDbEntity
  8
0
  6
Continuous
 62
     7
370
    30
100
AcDbLine
 10
4.9125528118
 20
5.202291336
 30
0.0
 11
4.8836852953
 21
5.1522913403
 31
0.0
  0
LINE
  5
1CC
330
1F
100
AcDbEntity
  8
0
  6
Continuous
 62
     7
370
    30
100
AcDbLine
 10
4.8836852953
 20
5.1522913403
 30
0.0
 11
4.9150528263
 21
5.1522913403
 31
0.0
  0
LINE
  5
1CD
330
1F
100
AcDbEntity
  8
0
  6
Continuous
 62
     7
370
    30
100
AcDbLine
 10
5.0070528302
 20
5.1522913403
 30
0.0
 11
5.0384203245
 21
5.1522913403
 31
0.0
  0
LINE
  5
1CE
330
1F
100
AcDbEntity
  8
0
  6
Continuous
 62
     7
370
    30
100
AcDbLine
 10
5.0384203245
 20
5.1522913403
 30
0.0
 11
5.0095528079
 21
5.202291336
 31
0.0
  0
LINE
  5
1CF
330
1F
100
AcDbEntity
  8
0
  6
Continuous
 62
     7
370
    30
100
AcDbLine
 10
5.1250528303
 20
5.433291335
 30
0.0
 11
5.0095528079
 21
5.433291335
 31
0.0
  0
LINE
  5
1D0
330
1F
100
AcDbEntity
  8
0
  6
Continuous
 62
     7
370
    30
100
AcDbLine
 10
5.1625528271
 20
5.4325413361
 30
0.0
 11
5.1625528271
 21
5.202291336
 31
0.0
  0
LINE
  5
1D1
330
1F
100
AcDbEntity
  8
0
  6
Continuous
 62
     7
370
    30
100
AcDbLine
 10
5.1625528271
 20
5.202291336
 30
0.0
 11
5.1336853106
 21
5.1522913403
 31
0.0
  0
LINE
  5
1D2
330
1F
100
AcDbEntity
  8
0
  6
Continuous
 62
     7
370
    30
100
AcDbLine
 10
5.1336853106
 20
5.1522913403
 30
0.0
 11
5.1650528233
 21
5.1522913403
 31
0.0
  0
LINE
  5
1D3
330
1F
100
AcDbEntity
  8
0
  6
Continuous
 62
     7
370
    30
100
AcDbLine
 10
5.2570528271
 20
5.1522913403
 30
0.0
 11
5.2884203398
 21
5.1522913403
 31
0.0
  0
LINE
  5
1D4
330
1F
100
AcDbEntity
  8
0
  6
Continuous
 62
     7
370
    30
100
AcDbLine
 10
5.2884203398
 20
5.1522913403
 30
0.0
 11
5.2595528233
 21
5.202291336
 31
0.0
  0
LINE
  5
1D5
330
1F
100
AcDbEntity
  8
0
  6
Continuous
 62
     7
370
    30
100
AcDbLine
 10
5.3750528182
 20
5.433291335
 30
0.0
 11
5.2595528233
 21
5.433291335
 31
0.0
  0
LINE
  5
1D6
330
1F
100
AcDbEntity
  8
0
  6
Continuous
 62
     7
370
    30
100
AcDbLine
 10
5.4125528241
 20
5.4325413361
 30
0.0
 11
5.4125528241
 21
5.202291336
 31
0.0
  0
LINE
  5
1D7
330
1F
100
AcDbEntity
  8
0
  6
Continuous
 62
     7
370
    30
100
AcDbLine
 10
5.4125528241
 20
5.202291336
 30
0.0
 11
5.3836853076
 21
5.1522913403
 31
0.0
  0
LINE
  5
1D8
330
1F
100
AcDbEntity
  8
0
  6
Continuous
 62
     7
370
    30
100
AcDbLine
 10
5.3836853076
 20
5.1522913403
 30
0.0
 11
5.4150528202
 21
5.1522913403
 31
0.0
  0
LINE
  5
1D9
330
1F
100
AcDbEntity
  8
0
  6
Continuous
 62
     7
370
    30
100
AcDbLine
 10
5.5070528241
 20
5.1522913403
 30
0.0
 11
5.5384203368
 21
5.1522913403
 31
0.0
  0
LINE
  5
1DA
330
1F
100
AcDbEntity
  8
0
  6
Continuous
 62
     7
370
    30
100
AcDbLine
 10
5.5384203368
 20
5.1522913403
 30
0.0
 11
5.5095528202
 21
5.202291336
 31
0.0
  0
LINE
  5
1DB
330
1F
100
AcDbEntity
  8
0
  6
Continuous
 62
     7
370
    30
100
AcDbLine
 10
5.6250528243
 20
5.433291335
 30
0.0
 11
5.5095528202
 21
5.433291335
 31
0.0
  0
LINE
  5
1DC
330
1F
100
AcDbEntity
  8
0
  6
Continuous
 62
     7
370
    30
100
AcDbLine
 10
5.6625528211
 20
5.4325413361
 30
0.0
 11
5.6625528211
 21
5.202291336
 31
0.0
  0
LINE
  5
1DD
330
1F
100
AcDbEntity
  8
0
  6
Continuous
 62
     7
370
    30
100
AcDbLine
 10
5.6625528211
 20
5.202291336
 30
0.0
 11
5.6336853046
 21
5.1522913403
 31
0.0
  0
LINE
  5
1DE
330
1F
100
AcDbEntity
  8
0
  6
Continuous
 62
     7
370
    30
100
AcDbLine
 10
5.6336853046
 20
5.1522913403
 30
0.0
 11
5.6650528172
 21
5.1522913403
 31
0.0
  0
LINE
  5
1DF
330
1F
100
AcDbEntity
  8
0
  6
Continuous
 62
     7
370
    30
100
AcDbLine
 10
5.7570528211
 20
5.1522913403
 30
0.0
 11
5.7884203337
 21
5.1522913403
 31
0.0
  0
LINE
  5
1E0
330
1F
100
AcDbEntity
  8
0
  6
Continuous
 62
     7
370
    30
100
AcDbLine
 10
5.7884203337
 20
5.1522913403
 30
0.0
 11
5.7595528172
 21
5.202291336
 31
0.0
  0
LINE
  5
1E1
330
1F
100
AcDbEntity
  8
0
  6
Continuous
 62
     7
370
    30
100
AcDbLine
 10
5.9125528364
 20
5.4325413361
 30
0.0
 11
5.9125528364
 21
5.202291336
 31
0.0
  0
LINE
  5
1E2
330
1F
100
AcDbEntity
  8
0
  6
Continuous
 62
     7
370
    30
100
AcDbLine
 10
5.9125528364
 20
5.202291336
 30
0.0
 11
5.8836853199
 21
5.1522913403
 31
0.0
  0
LINE
  5
1E3
330
1F
100
AcDbEntity
  8
0
  6
Continuous
 62
     7
370
    30
100
AcDbLine
 10
5.8836853199
 20
5.1522913403
 30
0.0
 11
5.9150528142
 21
5.1522913403
 31
0.0
  0
LINE
  5
1E4
330
1F
100
AcDbEntity
  8
0
  6
Continuous
 62
     7
370
    30
100
AcDbLine
 10
6.0070528181
 20
5.1522913403
 30
0.0
 11
6.038420349
 21
5.1522913403
 31
0.0
  0
LINE
  5
1E5
330
1F
100
AcDbEntity
  8
0
  6
Continuous
 62
     7
370
    30
100
AcDbLine
 10
6.038420349
 20
5.1522913403
 30
0.0
 11
6.0095528325
 21
5.202291336
 31
0.0
  0
LINE
  5
1E6
330
1F
100
AcDbEntity
  8
0
  6
Continuous
 62
     7
370
    30
100
AcDbLine
 10
6.0095528325
 20
5.202291336
 30
0.0
 11
6.0095528325
 21
5.433291335
 31
0.0
  0
LINE
  5
1E7
330
1F
100
AcDbEntity
  8
0
  6
Continuous
 62
     7
370
    30
100
AcDbLine
 10
6.1625528517
 20
5.4325413361
 30
0.0
 11
6.1625528517
 21
5.202291336
 31
0.0
  0
LINE
  5
1E8
330
1F
100
AcDbEntity
  8
0
  6
Continuous
 62
     7
370
    30
100
AcDbLine
 10
6.1625528517
 20
5.202291336
 30
0.0
 11
6.1336852985
 21
5.1522913403
 31
0.0
  0
LINE
  5
1E9
330
1F
100
AcDbEntity
  8
0
  6
Continuous
 62
     7
370
    30
100
AcDbLine
 10
6.1336852985
 20
5.1522913403
 30
0.0
 11
6.1650528295
 21
5.1522913403
 31
0.0
  0
LINE
  5
1EA
330
1F
100
AcDbEntity
  8
0
  6
Continuous
 62
     7
370
    30
100
AcDbLine
 10
6.2570528334
 20
5.1522913403
 30
0.0
 11
6.2884203644
 21
5.1522913403
 31
0.0
  0
LINE
  5
1EB
330
1F
100
AcDbEntity
  8
0
  6
Continuous
 62
     7
370
    30
100
AcDbLine
 10
6.2884203644
 20
5.1522913403
 30
0.0
 11
6.2595528112
 21
5.202291336
 31
0.0
  0
LINE
  5
1EC
330
1F
100
AcDbEntity
  8
0
  6
Continuous
 62
     7
370
    30
100
AcDbLine
 10
6.2595528112
 20
5.202291336
 30
0.0
 11
6.2595528112
 21
5.433291335
 31
0.0
  0
LINE
  5
1ED
330
1F
100
AcDbEntity
  8
0
  6
Continuous
 62
     7
370
    30
100
AcDbLine
 10
6.4125528304
 20
5.4325413361
 30
0.0
 11
6.4125528304
 21
5.202291336
 31
0.0
  0
LINE
  5
1EE
330
1F
100
AcDbEntity
  8
0
  6
Continuous
 62
     7
370
    30
100
AcDbLine
 10
6.4125528304
 20
5.202291336
 30
0.0
 11
6.3836852772
 21
5.1522913403
 31
0.0
  0
LINE
  5
1EF
330
1F
100
AcDbEntity
  8
0
  6
Continuous
 62
     7
370
    30
100
AcDbLine
 10
6.3836852772
 20
5.1522913403
 30
0.0
 11
6.4150528082
 21
5.1522913403
 31
0.0
  0
LINE
  5
1F0
330
1F
100
AcDbEntity
  8
0
  6
Continuous
 62
     7
370
    30
100
AcDbLine
 10
6.507052812
 20
5.1522913403
 30
0.0
 11
6.538420343
 21
5.1522913403
 31
0.0
  0
LINE
  5
1F1
330
1F
100
AcDbEntity
  8
0
  6
Continuous
 62
     7
370
    30
100
AcDbLine
 10
6.538420343
 20
5.1522913403
 30
0.0
 11
6.5095527898
 21
5.202291336
 31
0.0
  0
LINE
  5
1F2
330
1F
100
AcDbEntity
  8
0
  6
Continuous
 62
     7
370
    30
100
AcDbLine
 10
6.662552809
 20
5.4325413361
 30
0.0
 11
6.662552809
 21
5.202291336
 31
0.0
  0
LINE
  5
1F3
330
1F
100
AcDbEntity
  8
0
  6
Continuous
 62
     7
370
    30
100
AcDbLine
 10
6.662552809
 20
5.202291336
 30
0.0
 11
6.6336853292
 21
5.1522913403
 31
0.0
  0
LINE
  5
1F4
330
1F
100
AcDbEntity
  8
0
  6
Continuous
 62
     7
370
    30
100
AcDbLine
 10
6.6336853292
 20
5.1522913403
 30
0.0
 11
6.6650527868
 21
5.1522913403
 31
0.0
  0
LINE
  5
1F5
330
1F
100
AcDbEntity
  8
0
  6
Continuous
 62
     7
370
    30
100
AcDbLine
 10
6.757052864
 20
5.1522913403
 30
0.0
 11
6.788420395
 21
5.1522913403
 31
0.0
  0
LINE
  5
1F6
330
1F
100
AcDbEntity
  8
0
  6
Continuous
 62
     7
370
    30
100
AcDbLine
 10
6.788420395
 20
5.1522913403
 30
0.0
 11
6.7595527685
 21
5.202291336
 31
0.0
  0
LINE
  5
1F7
330
1F
100
AcDbEntity
  8
0
  6
Continuous
 62
     7
370
    30
100
AcDbLine
 10
6.9125527877
 20
5.4325413361
 30
0.0
 11
6.9125527877
 21
5.202291336
 31
0.0
  0
LINE
  5
1F8
330
1F
100
AcDbEntity
  8
0
  6
Continuous
 62
     7
370
    30
100
AcDbLine
 10
6.9125527877
 20
5.202291336
 30
0.0
 11
6.8836853078
 21
5.1522913403
 31
0.0
  0
LINE
  5
1F9
330
1F
100
AcDbEntity
  8
0
  6
Continuous
 62
     7
370
    30
100
AcDbLine
 10
6.8836853078
 20
5.1522913403
 30
0.0
 11
6.9150528388
 21
5.1522913403
 31
0.0
  0
LINE
  5
1FA
330
1F
100
AcDbEntity
  8
0
  6
Continuous
 62
     7
370
    30
100
AcDbLine
 10
7.0070528427
 20
5.1522913403
 30
0.0
 11
7.0384203736
 21
5.1522913403
 31
0.0
  0
LINE
  5
1FB
330
1F
100
AcDbEntity
  8
0
  6
Continuous
 62
     7
370
    30
100
AcDbLine
 10
7.0384203736
 20
5.1522913403
 30
0.0
 11
7.0095528938
 21
5.202291336
 31
0.0
  0
LINE
  5
1FC
330
1F
100
AcDbEntity
  8
0
  6
Continuous
 62
     7
370
    30
100
AcDbLine
 10
7.1250528795
 20
5.433291335
 30
0.0
 11
7.0095528938
 21
5.433291335
 31
0.0
  0
LINE
  5
1FD
330
1F
100
AcDbEntity
  8
0
  6
Continuous
 62
     7
370
    30
100
AcDbLine
 10
7.1625527663
 20
5.4325413361
 30
0.0
 11
7.1625527663
 21
5.202291336
 31
0.0
  0
LINE
  5
1FE
330
1F
100
AcDbEntity
  8
0
  6
Continuous
 62
     7
370
    30
100
AcDbLine
 10
7.1625527663
 20
5.202291336
 30
0.0
 11
7.1336852865
 21
5.1522913403
 31
0.0
  0
LINE
  5
1FF
330
1F
100
AcDbEntity
  8
0
  6
Continuous
 62
     7
370
    30
100
AcDbLine
 10
7.1336852865
 20
5.1522913403
 30
0.0
 11
7.1650528174
 21
5.1522913403
 31
0.0
  0
LINE
  5
200
330
1F
100
AcDbEntity
  8
0
  6
Continuous
 62
     7
370
    30
100
AcDbLine
 10
7.2570528213
 20
5.1522913403
 30
0.0
 11
7.2884203523
 21
5.1522913403
 31
0.0
  0
LINE
  5
201
330
1F
100
AcDbEntity
  8
0
  6
Continuous
 62
     7
370
    30
100
AcDbLine
 10
7.2884203523
 20
5.1522913403
 30
0.0
 11
7.2595528724
 21
5.202291336
 31
0.0
  0
LINE
  5
202
330
1F
100
AcDbEntity
  8
0
  6
Continuous
 62
     7
370
    30
100
AcDbLine
 10
7.4125528916
 20
5.433291335
 30
0.0
 11
7.2595528724
 21
5.433291335
 31
0.0
  0
LINE
  5
203
330
1F
100
AcDbEntity
  8
0
  6
Continuous
 62
     7
370
    30
100
AcDbLine
 10
7.4125528916
 20
5.202291336
 30
0.0
 11
7.4125528916
 21
5.433291335
 31
0.0
  0
LINE
  5
204
330
1F
100
AcDbEntity
  8
0
  6
Continuous
 62
     7
370
    30
100
AcDbLine
 10
7.3836852651
 20
5.1522913403
 30
0.0
 11
7.4125528916
 21
5.202291336
 31
0.0
  0
LINE
  5
205
330
1F
100
AcDbEntity
  8
0
  6
Continuous
 62
     7
370
    30
100
AcDbLine
 10
7.5391778555
 20
5.1522913403
 30
0.0
 11
7.3836852651
 21
5.1522913403
 31
0.0
  0
LINE
  5
206
330
1F
100
AcDbEntity
  8
0
  6
Continuous
 62
     7
370
    30
100
AcDbLine
 10
7.5391778555
 20
5.1522913403
 30
0.0
 11
7.5391778555
 21
5.0902913265
 31
0.0
  0
LINE
  5
207
330
1F
100
AcDbEntity
  8
0
  6
Continuous
 62
     7
370
    30
100
AcDbLine
 10
7.2595528724
 20
5.202291336
 30
0.0
 11
7.2595528724
 21
5.433291335
 31
0.0
  0
LINE
  5
208
330
1F
100
AcDbEntity
  8
0
  6
Continuous
 62
     7
370
    30
100
AcDbLine
 10
5.7595528172
 20
5.202291336
 30
0.0
 11
5.7595528172
 21
5.433291335
 31
0.0
  0
LINE
  5
209
330
1F
100
AcDbEntity
  8
0
  6
Continuous
 62
     7
370
    30
100
AcDbLine
 10
6.8750527542
 20
5.433291335
 30
0.0
 11
6.7595527685
 21
5.433291335
 31
0.0
  0
LINE
  5
20A
330
1F
100
AcDbEntity
  8
0
  6
Continuous
 62
     7
370
    30
100
AcDbLine
 10
4.1250528424
 20
5.433291335
 30
0.0
 11
4.0095528567
 21
5.433291335
 31
0.0
  0
LINE
  5
20B
330
1F
100
AcDbEntity
  8
0
  6
Continuous
 62
     7
370
    30
100
AcDbLine
 10
5.0095528079
 20
5.202291336
 30
0.0
 11
5.0095528079
 21
5.433291335
 31
0.0
  0
LINE
  5
20C
330
1F
100
AcDbEntity
  8
0
  6
Continuous
 62
     7
370
    30
100
AcDbLine
 10
5.8750528396
 20
5.433291335
 30
0.0
 11
5.7595528172
 21
5.433291335
 31
0.0
  0
LINE
  5
20D
330
1F
100
AcDbEntity
  8
0
  6
Continuous
 62
     7
370
    30
100
AcDbLine
 10
6.6250528489
 20
5.433291335
 30
0.0
 11
6.5095527898
 21
5.433291335
 31
0.0
  0
LINE
  5
20E
330
1F
100
AcDbEntity
  8
0
  6
Continuous
 62
     7
370
    30
100
AcDbLine
 10
7.0095528938
 20
5.202291336
 30
0.0
 11
7.0095528938
 21
5.433291335
 31
0.0
  0
LINE
  5
20F
330
1F
100
AcDbEntity
  8
0
  6
Continuous
 62
     7
370
    30
100
AcDbLine
 10
5.2595528233
 20
5.202291336
 30
0.0
 11
5.2595528233
 21
5.433291335
 31
0.0
  0
LINE
  5
210
330
1F
100
AcDbEntity
  8
0
  6
Continuous
 62
     7
370
    30
100
AcDbLine
 10
6.5095527898
 20
5.202291336
 30
0.0
 11
6.5095527898
 21
5.433291335
 31
0.0
  0
LINE
  5
211
330
1F
100
AcDbEntity
  8
0
  6
Continuous
 62
     7
370
    30
100
AcDbLine
 10
3.8750528638
 20
5.433291335
 30
0.0
 11
3.7595528781
 21
5.433291335
 31
0.0
  0
LINE
  5
212
330
1F
100
AcDbEntity
  8
0
  6
Continuous
 62
     7
370
    30
100
AcDbLine
 10
6.3750527969
 20
5.433291335
 30
0.0
 11
6.2595528112
 21
5.433291335
 31
0.0
  0
LINE
  5
213
330
1F
100
AcDbEntity
  8
0
  6
Continuous
 62
     7
370
    30
100
AcDbLine
 10
5.5095528202
 20
5.202291336
 30
0.0
 11
5.5095528202
 21
5.433291335
 31
0.0
  0
LINE
  5
214
330
1F
100
AcDbEntity
  8
0
  6
Continuous
 62
     7
370
    30
100
AcDbLine
 10
4.6250527997
 20
5.433291335
 30
0.0
 11
4.509552814
 21
5.433291335
 31
0.0
  0
LINE
  5
215
330
1F
100
AcDbEntity
  8
0
  6
Continuous
 62
     7
370
    30
100
AcDbLine
 10
4.7595527926
 20
5.202291336
 30
0.0
 11
4.7595527926
 21
5.433291335
 31
0.0
  0
LINE
  5
216
330
1F
100
AcDbEntity
  8
0
  6
Continuous
 62
     7
370
    30
100
AcDbLine
 10
6.7595527685
 20
5.202291336
 30
0.0
 11
6.7595527685
 21
5.433291335
 31
0.0
  0
LINE
  5
217
330
1F
100
AcDbEntity
  8
0
  6
Continuous
 62
     7
370
    30
100
AcDbLine
 10
6.1250528183
 20
5.433291335
 30
0.0
 11
6.0095528325
 21
5.433291335
 31
0.0
  0
LINE
  5
218
330
1F
100
AcDbEntity
  8
0
  6
Continuous
 62
     7
370
    30
100
AcDbLine
 10
4.3750528211
 20
5.433291335
 30
0.0
 11
4.2595528353
 21
5.433291335
 31
0.0
  0
LINE
  5
219
330
1F
100
AcDbEntity
  8
0
  6
Continuous
 62
     7
370
    30
100
AcDbLine
 10
4.0095528567
 20
5.202291336
 30
0.0
 11
4.0095528567
 21
5.433291335
 31
0.0
  0
LINE
  5
21A
330
1F
100
AcDbEntity
  8
0
  6
Continuous
 62
     7
370
    30
100
AcDbLine
 10
7.8818027775
 20
5.5725413388
 30
0.0
 11
8.0998029524
 21
5.5725413388
 31
0.0
  0
LINE
  5
21B
330
1F
100
AcDbEntity
  8
0
  6
Continuous
 62
     7
370
    30
100
AcDbLine
 10
8.0998029524
 20
5.7595413419
 30
0.0
 11
8.1798028283
 21
5.7595413419
 31
0.0
  0
LINE
  5
21C
330
1F
100
AcDbEntity
  8
0
  6
Continuous
 62
     7
370
    30
100
AcDbLine
 10
8.1798028283
 20
5.7595413419
 30
0.0
 11
8.1798028283
 21
5.5095413404
 31
0.0
  0
ARC
  5
21D
330
1F
100
AcDbEntity
  8
0
  6
Continuous
 62
     7
370
    30
100
AcDbCircle
 10
8.0243028222
 20
5.4290413388
 30
0.0
 40
0.1245000000000037
100
AcDbArc
 50
3.474703961
 51
40.2847186534
  0
ARC
  5
21E
330
1F
100
AcDbEntity
  8
0
  6
Continuous
 62
     7
370
    30
100
AcDbCircle
 10
8.0243028222
 20
5.4290413388
 30
0.0
 40
0.0625000000000044
100
AcDbArc
 50
3.474703961
 51
266.525296039
  0
ARC
  5
21F
330
1F
100
AcDbEntity
  8
0
  6
Continuous
 62
     7
370
    30
100
AcDbCircle
 10
8.0243028222
 20
5.4290413388
 30
0.0
 40
0.1245000000000029
100
AcDbArc
 50
229.7152813466
 51
266.525296039
  0
LINE
  5
220
330
1F
100
AcDbEntity
  8
0
  6
Continuous
 62
     7
370
    30
100
AcDbLine
 10
7.9438027546
 20
5.3340676504
 30
0.0
 11
7.9438027546
 21
4.1815414078
 31
0.0
  0
LINE
  5
221
330
1F
100
AcDbEntity
  8
0
  6
Continuous
 62
     7
370
    30
100
AcDbLine
 10
7.9438027546
 20
4.1815414078
 30
0.0
 11
7.8238027942
 21
4.1815414078
 31
0.0
  0
LINE
  5
222
330
1F
100
AcDbEntity
  8
0
  6
Continuous
 62
     7
370
    30
100
AcDbLine
 10
7.8238027942
 20
4.1815414078
 30
0.0
 11
7.8818027775
 21
4.4315413131
 31
0.0
  0
ARC
  5
223
330
1F
100
AcDbEntity
  8
0
  6
Continuous
 62
     7
370
    30
100
AcDbCircle
 10
8.0186359875
 20
5.3357132242
 30
0.0
 40
0.0309999999999997
100
AcDbArc
 50
266.525296039
 51
86.525296039
  0
ARC
  5
224
330
1F
100
AcDbEntity
  8
0
  6
Continuous
 62
     7
370
    30
100
AcDbCircle
 10
8.1176309368
 20
5.4347081736
 30
0.0
 40
0.0310000000000014
100
AcDbArc
 50
183.474703961
 51
3.474703961
  0
LINE
  5
225
330
1F
100
AcDbEntity
  8
0
  6
Continuous
 62
     7
370
    30
100
AcDbLine
 10
8.1798028283
 20
5.5095413404
 30
0.0
 11
8.1192765408
 21
5.5095413404
 31
0.0
  0
LINE
  5
226
330
1F
100
AcDbEntity
  8
0
  6
Continuous
 62
     7
370
    30
100
AcDbLine
 10
8.0998029524
 20
5.5725413388
 30
0.0
 11
8.0998029524
 21
5.7595413419
 31
0.0
  0
LINE
  5
227
330
1F
100
AcDbEntity
  8
0
  6
Continuous
 62
     7
370
    30
100
AcDbLine
 10
7.8818027775
 20
4.4315413131
 30
0.0
 11
7.8818027775
 21
5.5725413388
 31
0.0
  0
LINE
  5
228
330
1F
100
AcDbEntity
  8
0
  6
Continuous
 62
     7
370
    30
100
AcDbLine
 10
2.9783028898
 20
4.1815414078
 30
0.0
 11
3.0983028502
 21
4.1815414078
 31
0.0
  0
LINE
  5
229
330
1F
100
AcDbEntity
  8
0
  6
Continuous
 62
     7
370
    30
100
AcDbLine
 10
2.9783028898
 20
5.3340676504
 30
0.0
 11
2.9783028898
 21
4.1815414078
 31
0.0
  0
ARC
  5
22A
330
1F
100
AcDbEntity
  8
0
  6
Continuous
 62
     7
370
    30
100
AcDbCircle
 10
2.9034696569
 20
5.3357132242
 30
0.0
 40
0.0309999999999997
100
AcDbArc
 50
93.474703961
 51
273.474703961
  0
ARC
  5
22B
330
1F
100
AcDbEntity
  8
0
  6
Continuous
 62
     7
370
    30
100
AcDbCircle
 10
2.8978028222
 20
5.4290413388
 30
0.0
 40
0.1245000000000033
100
AcDbArc
 50
139.7152813466
 51
176.525296039
  0
LINE
  5
22C
330
1F
100
AcDbEntity
  8
0
  6
Continuous
 62
     7
370
    30
100
AcDbLine
 10
2.7423028161
 20
5.7595413419
 30
0.0
 11
2.7423028161
 21
5.5095413404
 31
0.0
  0
LINE
  5
22D
330
1F
100
AcDbEntity
  8
0
  6
Continuous
 62
     7
370
    30
100
AcDbLine
 10
2.8223026919
 20
5.5725413388
 30
0.0
 11
2.8223026919
 21
5.7595413419
 31
0.0
  0
LINE
  5
22E
330
1F
100
AcDbEntity
  8
0
  6
Continuous
 62
     7
370
    30
100
AcDbLine
 10
3.0403028669
 20
4.4315413131
 30
0.0
 11
3.0403028669
 21
5.5725413388
 31
0.0
  0
LINE
  5
22F
330
1F
100
AcDbEntity
  8
0
  6
Continuous
 62
     7
370
    30
100
AcDbLine
 10
3.0983028502
 20
4.1815414078
 30
0.0
 11
3.0403028669
 21
4.4315413131
 31
0.0
  0
ARC
  5
230
330
1F
100
AcDbEntity
  8
0
  6
Continuous
 62
     7
370
    30
100
AcDbCircle
 10
2.8978028222
 20
5.4290413388
 30
0.0
 40
0.1245000000000028
100
AcDbArc
 50
273.474703961
 51
310.2847186534
  0
ARC
  5
231
330
1F
100
AcDbEntity
  8
0
  6
Continuous
 62
     7
370
    30
100
AcDbCircle
 10
2.8978028222
 20
5.4290413388
 30
0.0
 40
0.062500000000004
100
AcDbArc
 50
273.474703961
 51
176.525296039
  0
LINE
  5
232
330
1F
100
AcDbEntity
  8
0
  6
Continuous
 62
     7
370
    30
100
AcDbLine
 10
2.8223026919
 20
5.7595413419
 30
0.0
 11
2.7423028161
 21
5.7595413419
 31
0.0
  0
LINE
  5
233
330
1F
100
AcDbEntity
  8
0
  6
Continuous
 62
     7
370
    30
100
AcDbLine
 10
3.0403028669
 20
5.5725413388
 30
0.0
 11
2.8223026919
 21
5.5725413388
 31
0.0
  0
ARC
  5
234
330
1F
100
AcDbEntity
  8
0
  6
Continuous
 62
     7
370
    30
100
AcDbCircle
 10
2.8044747075
 20
5.4347081736
 30
0.0
 40
0.0309999999999996
100
AcDbArc
 50
176.525296039
 51
356.525296039
  0
LINE
  5
235
330
1F
100
AcDbEntity
  8
0
  6
Continuous
 62
     7
370
    30
100
AcDbLine
 10
2.7423028161
 20
5.5095413404
 30
0.0
 11
2.8028291035
 21
5.5095413404
 31
0.0
  0
LINE
  5
236
330
1F
100
AcDbEntity
  8
0
  6
Continuous
 62
     8
370
     0
100
AcDbLine
 10
3.2899113967
 20
4.7823582804
 30
0.0
 11
3.2647972202
 21
4.7890875627
 31
0.0
  0
LINE
  5
237
330
1F
100
AcDbEntity
  8
0
  6
Continuous
 62
     8
370
     0
100
AcDbLine
 10
3.2650528572
 20
4.7910287469
 30
0.0
 11
3.2910528902
 21
4.7910287469
 31
0.0
  0
LINE
  5
238
330
1F
100
AcDbEntity
  8
0
  6
Continuous
 62
     8
370
     0
100
AcDbLine
 10
3.1375731299
 20
4.2128369263
 30
0.0
 11
3.1115730969
 21
4.2128369263
 31
0.0
  0
LINE
  5
239
330
1F
100
AcDbEntity
  8
0
  6
Continuous
 62
     8
370
     0
100
AcDbLine
 10
3.1127145904
 20
4.2215074661
 30
0.0
 11
3.1378286203
 21
4.2147780372
 31
0.0
  0
LINE
  5
23A
330
1F
100
AcDbEntity
  8
0
  6
Continuous
 62
     8
370
     0
100
AcDbLine
 10
3.5653671346
 20
3.7644256397
 30
0.0
 11
3.5913671676
 21
3.7644256397
 31
0.0
  0
LINE
  5
23B
330
1F
100
AcDbEntity
  8
0
  6
Continuous
 62
     8
370
     0
100
AcDbLine
 10
3.5491967348
 20
3.7320670935
 30
0.0
 11
3.555926017
 21
3.75718127
 31
0.0
  0
LINE
  5
23C
330
1F
100
AcDbEntity
  8
0
  6
Continuous
 62
     8
370
     0
100
AcDbLine
 10
3.0501319133
 20
3.8927083577
 30
0.0
 11
3.0434026311
 21
3.8675943279
 31
0.0
  0
LINE
  5
23D
330
1F
100
AcDbEntity
  8
0
  6
Continuous
 62
     8
370
     0
100
AcDbLine
 10
3.0185731312
 20
3.8999527274
 30
0.0
 11
3.0445731642
 21
3.8999527274
 31
0.0
  0
LINE
  5
23E
330
1F
100
AcDbEntity
  8
0
  6
Continuous
 62
     8
370
     0
100
AcDbLine
 10
3.0445731642
 20
4.1177472781
 30
0.0
 11
3.0185731312
 21
4.1177472781
 31
0.0
  0
LINE
  5
23F
330
1F
100
AcDbEntity
  8
0
  6
Continuous
 62
     8
370
     0
100
AcDbLine
 10
3.1040730902
 20
4.1252472848
 30
0.0
 11
3.1040730902
 21
4.1512473177
 31
0.0
  0
LINE
  5
240
330
1F
100
AcDbEntity
  8
0
  6
Continuous
 62
     8
370
     0
100
AcDbLine
 10
3.1115730969
 20
4.1587473244
 30
0.0
 11
3.1375731299
 21
4.1587473244
 31
0.0
  0
LINE
  5
241
330
1F
100
AcDbEntity
  8
0
  6
Continuous
 62
     8
370
     0
100
AcDbLine
 10
3.0520731709
 20
4.1512473177
 30
0.0
 11
3.0520731709
 21
4.1252472848
 31
0.0
  0
LINE
  5
242
330
1F
100
AcDbEntity
  8
0
  6
Continuous
 62
     8
370
     0
100
AcDbLine
 10
7.3661796273
 20
3.75718127
 30
0.0
 11
7.3729089096
 21
3.7320670935
 31
0.0
  0
LINE
  5
243
330
1F
100
AcDbEntity
  8
0
  6
Continuous
 62
     8
370
     0
100
AcDbLine
 10
7.3307384767
 20
3.7644256397
 30
0.0
 11
7.3567385097
 21
3.7644256397
 31
0.0
  0
LINE
  5
244
330
1F
100
AcDbEntity
  8
0
  6
Continuous
 62
     8
370
     0
100
AcDbLine
 10
7.8775324801
 20
3.8999527274
 30
0.0
 11
7.9035325131
 21
3.8999527274
 31
0.0
  0
LINE
  5
245
330
1F
100
AcDbEntity
  8
0
  6
Continuous
 62
     8
370
     0
100
AcDbLine
 10
7.9035325131
 20
4.1177472781
 30
0.0
 11
7.8775324801
 21
4.1177472781
 31
0.0
  0
LINE
  5
246
330
1F
100
AcDbEntity
  8
0
  6
Continuous
 62
     8
370
     0
100
AcDbLine
 10
7.6310527542
 20
4.7910287469
 30
0.0
 11
7.6570527871
 21
4.7910287469
 31
0.0
  0
LINE
  5
247
330
1F
100
AcDbEntity
  8
0
  6
Continuous
 62
     8
370
     0
100
AcDbLine
 10
7.6573084242
 20
4.7890875627
 30
0.0
 11
7.6321942476
 21
4.7823582804
 31
0.0
  0
LINE
  5
248
330
1F
100
AcDbEntity
  8
0
  6
Continuous
 62
     8
370
     0
100
AcDbLine
 10
7.8787030133
 20
3.8675943279
 30
0.0
 11
7.871973731
 21
3.8927083577
 31
0.0
  0
LINE
  5
249
330
1F
100
AcDbEntity
  8
0
  6
Continuous
 62
     8
370
     0
100
AcDbLine
 10
7.7845325145
 20
4.1587473244
 30
0.0
 11
7.8105325475
 21
4.1587473244
 31
0.0
  0
LINE
  5
24A
330
1F
100
AcDbEntity
  8
0
  6
Continuous
 62
     8
370
     0
100
AcDbLine
 10
7.8105325475
 20
4.2128369263
 30
0.0
 11
7.7845325145
 21
4.2128369263
 31
0.0
  0
LINE
  5
24B
330
1F
100
AcDbEntity
  8
0
  6
Continuous
 62
     8
370
     0
100
AcDbLine
 10
7.8180325541
 20
4.1512473177
 30
0.0
 11
7.8180325541
 21
4.1252472848
 31
0.0
  0
LINE
  5
24C
330
1F
100
AcDbEntity
  8
0
  6
Continuous
 62
     8
370
     0
100
AcDbLine
 10
7.7842770241
 20
4.2147780372
 30
0.0
 11
7.809391054
 21
4.2215074661
 31
0.0
  0
LINE
  5
24D
330
1F
100
AcDbEntity
  8
0
  6
Continuous
 62
     8
370
     0
100
AcDbLine
 10
7.8700324734
 20
4.1252472848
 30
0.0
 11
7.8700324734
 21
4.1512473177
 31
0.0
  0
LINE
  5
24E
330
1F
100
AcDbEntity
  8
FORMAT
370
     0
100
AcDbLine
 10
5.4610528222
 20
5.9440548636
 30
0.0
 11
5.4610528222
 21
3.6497260832
 31
0.0
  0
LINE
  5
24F
330
1F
100
AcDbEntity
  8
FORMAT
  6
PHANTOM
370
     0
100
AcDbLine
 10
2.9610528222
 20
5.3047702129
 30
0.0
 11
2.9610528222
 21
2.3256861262
 31
0.0
  0
LINE
  5
250
330
1F
100
AcDbEntity
  8
FORMAT
  6
PHANTOM
370
     0
100
AcDbLine
 10
7.9610528222
 20
5.3047702129
 30
0.0
 11
7.9610528222
 21
2.3256861262
 31
0.0
  0
LINE
  5
251
330
1F
100
AcDbEntity
  8
FORMAT
  6
PHANTOM
370
     0
100
AcDbLine
 10
2.9610528222
 20
5.3047702129
 30
0.0
 11
2.7423028222
 21
5.3047702129
 31
0.0
  0
LINE
  5
252
330
1F
100
AcDbEntity
  8
FORMAT
370
     0
100
AcDbLine
 10
7.9610528222
 20
5.3047702129
 30
0.0
 11
8.1798028222
 21
5.3047702129
 31
0.0
  0
DIMENSION
  5
253
330
1F
100
AcDbEntity
  8
FORMAT
100
AcDbDimension
  2
*D1
 10
7.9610528222
 20
2.8513042597
 30
0.0
 11
5.4610528222
 21
2.8513042597
 31
0.0
 70
   160
  1
<>\PNOMINAL DUCT SIZE
 71
     2
 42
-1.0
  3
SLDDIMSTYLE0
100
AcDbAlignedDimension
 13
2.9610528222
 23
2.3256861262
 33
0.0
 14
7.9610528222
 24
2.3256861262
 34
0.0
100
AcDbRotatedDimension
  0
DIMENSION
  5
266
330
1F
100
AcDbEntity
  8
FORMAT
100
AcDbDimension
  2
*D2
 10
1.8836414049
 20
5.3047702129
 30
0.0
 11
1.8836414049
 21
6.1457618113
 31
0.0
 70
   160
  1
<>\PMIN
 71
     2
 42
-1.0
  3
SLDDIMSTYLE1
100
AcDbAlignedDimension
 13
2.7423028222
 23
5.7595413388
 33
0.0
 14
2.7423028222
 24
5.3047702129
 34
0.0
 50
90.0
100
AcDbRotatedDimension
  0
DIMENSION
  5
27B
330
1F
100
AcDbEntity
  8
FORMAT
100
AcDbDimension
  2
*D3
 10
8.1798028222
 20
6.6182027562
 30
0.0
 11
5.4610528222
 21
6.6182027562
 31
0.0
 70
   160
  1
<>\POVERALL
 71
     2
 42
-1.0
  3
SLDDIMSTYLE2
100
AcDbAlignedDimension
 13
2.7423028222
 23
5.7595413388
 33
0.0
 14
8.1798028222
 24
5.7595413388
 34
0.0
100
AcDbRotatedDimension
  0
MTEXT
  5
28F
330
1F
100
AcDbEntity
  8
FORMAT
100
AcDbMText
 10
5.5053242317
 20
1.9302852887
 30
0.0
 40
0.1666666667
 41
0.0
 71
     2
 72
     1
  1
TITUS CT-481 TYPE 3 FRAME & BORDER
  7
SLDTEXTSTYLE0
 73
     1
 44
1.0
  0
ENDSEC
  0
SECTION
  2
OBJECTS
  0
DICTIONARY
  5
C
330
0
100
AcDbDictionary
281
     1
  3
ACAD_GROUP
350
D
  3
ACAD_LAYOUT
350
1A
  3
ACAD_MLINESTYLE
350
17
  3
ACAD_PLOTSETTINGS
350
19
  3
ACAD_PLOTSTYLENAME
350
E
  0
DICTIONARY
  5
D
102
{ACAD_REACTORS
330
C
102
}
330
C
100
AcDbDictionary
281
     1
  0
DICTIONARY
  5
1A
102
{ACAD_REACTORS
330
C
102
}
330
C
100
AcDbDictionary
281
     1
  3
Layout1
350
1E
  3
Layout2
350
26
  3
Model
350
22
  0
DICTIONARY
  5
17
102
{ACAD_REACTORS
330
C
102
}
330
C
100
AcDbDictionary
281
     1
  3
Standard
350
18
  0
DICTIONARY
  5
19
102
{ACAD_REACTORS
330
C
102
}
330
C
100
AcDbDictionary
281
     1
  0
ACDBDICTIONARYWDFLT
  5
E
102
{ACAD_REACTORS
330
C
102
}
330
C
100
AcDbDictionary
281
     1
  3
Normal
350
F
100
AcDbDictionaryWithDefault
340
F
  0
LAYOUT
  5
1E
102
{ACAD_REACTORS
330
1A
102
}
330
1A
100
AcDbPlotSettings
  1

  2
none_device
  4

  6

 40
0.0
 41
0.0
 42
0.0
 43
0.0
 44
0.0
 45
0.0
 46
0.0
 47
0.0
 48
0.0
 49
0.0
140
0.0
141
0.0
142
1.0
143
1.0
 70
   688
 72
     0
 73
     0
 74
     5
  7

 75
    16
147
1.0
148
0.0
149
0.0
100
AcDbLayout
  1
Layout1
 70
     1
 71
     1
 10
0.0
 20
0.0
 11
12.0
 21
9.0
 12
0.0
 22
0.0
 32
0.0
 14
1.0000000000E+20
 24
1.0000000000E+20
 34
1.0000000000E+20
 15
-1.0000000000E+20
 25
-1.0000000000E+20
 35
-1.0000000000E+20
146
0.0
 13
0.0
 23
0.0
 33
0.0
 16
1.0
 26
0.0
 36
0.0
 17
0.0
 27
1.0
 37
0.0
 76
     0
330
1B
  0
LAYOUT
  5
26
102
{ACAD_REACTORS
330
1A
102
}
330
1A
100
AcDbPlotSettings
  1

  2
none_device
  4

  6

 40
0.0
 41
0.0
 42
0.0
 43
0.0
 44
0.0
 45
0.0
 46
0.0
 47
0.0
 48
0.0
 49
0.0
140
0.0
141
0.0
142
1.0
143
1.0
 70
   688
 72
     0
 73
     0
 74
     5
  7

 75
    16
147
1.0
148
0.0
149
0.0
100
AcDbLayout
  1
Layout2
 70
     1
 71
     2
 10
0.0
 20
0.0
 11
0.0
 21
0.0
 12
0.0
 22
0.0
 32
0.0
 14
0.0
 24
0.0
 34
0.0
 15
0.0
 25
0.0
 35
0.0
146
0.0
 13
0.0
 23
0.0
 33
0.0
 16
1.0
 26
0.0
 36
0.0
 17
0.0
 27
1.0
 37
0.0
 76
     0
330
23
  0
LAYOUT
  5
22
102
{ACAD_REACTORS
330
1A
102
}
330
1A
100
AcDbPlotSettings
  1

  2
none_device
  4

  6

 40
0.0
 41
0.0
 42
0.0
 43
0.0
 44
0.0
 45
0.0
 46
0.0
 47
0.0
 48
0.0
 49
0.0
140
0.0
141
0.0
142
1.0
143
1.0
 70
  1712
 72
     0
 73
     0
 74
     0
  7

 75
     0
147
1.0
148
0.0
149
0.0
100
AcDbLayout
  1
Model
 70
     1
 71
     0
 10
0.0
 20
0.0
 11
11.0
 21
8.5
 12
0.0
 22
0.0
 32
0.0
 14
0.0
 24
0.0
 34
0.0
 15
11.0
 25
8.5
 35
0.0
146
0.0
 13
0.0
 23
0.0
 33
0.0
 16
1.0
 26
0.0
 36
0.0
 17
0.0
 27
1.0
 37
0.0
 76
     0
330
1F
331
29
  0
MLINESTYLE
  5
18
102
{ACAD_REACTORS
330
17
102
}
330
17
100
AcDbMlineStyle
  2
Standard
 70
     0
  3

 62
   256
 51
90.0
 52
90.0
 71
     2
 49
0.5
 62
   256
  6
BYLAYER
 49
-0.5
 62
   256
  6
BYLAYER
  0
ACDBPLACEHOLDER
  5
F
102
{ACAD_REACTORS
330
E
102
}
330
E
  0
ENDSEC
  0
EOF
